img image001 image001 image001 image001 image001 image001 image001 image001 image001 image001 image001 image001 image001 image001 image001

Planets Sun Sun Sun
Статистика раздачи
Автор: PriZraK | Размер: 1.09 ГБ | Добавлен: 29 июн 2016
Раздают: 3    Качают: 6
Скачать торрент
Скачать торрент
Описание торрента

СообщениеДобавлено: 29 июн 2016 

Страна: СССР
Производство: Ленфильм
Жанр: драма
Год выпуска: 1955
Продолжительность: 01:23:54
Перевод: Не требуется
Cубтитры: нет
Оригинальная аудиодорожка: русский
Режиссер: Андрей Апсолон, Борис Дмоховский
В ролях:
Татьяна Ленникова, Павел Кадочников, Екатерина Александровская, Борис Смирнов, Николай Комиссаров, Евгений Лебедев, Константин Скоробогатов, Тамара Алёшина, Владимир Воронов, Геннадий Мичурин, Валентина Савельева, Николай Трофимов...
Полный список актёров
Описание:
По одноименной пьесе А.Н.Островского.
Талантливая актриса провинциального театра Негина должна покинуть сцену, так как чистота ее поведения несовместима с театральными нравами. Она любит студента Мелузова (Павел Кадочников), и оба мечтают о честной, трудовой жизни.
Суровая действительность разрушает ее планы. Прирожденная актриса, Негина не в силах оставить театр, и для того, чтобы служить искусству, она вынуждена, предав идеалы, продать себя. После мучительных сомнений актриса становится любовницей богатого помещика Великатова и уезжает с ним.
Мелузов, оставшись в одиночестве, гневно обличает развращенных "поклонников талантов", хозяев города.





Источник: DVD5 R5
Качество видео: DVDRip
Формат видео: AVI
Видео: 688x512 (1,376:1), 25 fps, XviD ~ 1650 kbps avg, 0.187 bit/pixel
Аудио: 48 kHz, Dolby Digital AC3 2.0, 192 kbps
Раздача от:
Общее
Полное имя : Talanty.i.poklonniki.1955.DVDRip_[New-team]_by_AVP_Studio.avi
Формат : AVI
Формат/Информация : Audio Video Interleave
Размер файла : 1,09 Гбайт
Продолжительность : 1 ч. 23 м.
Общий поток : 1852 Кбит/сек
Программа кодирования : VirtualDubMod 1.5.10.3 | www.virtualdub-fr.org || (build 2550/release)
Библиотека кодирования : VirtualDubMod build 2550/release
Видео
Идентификатор : 0
Формат : MPEG-4 Visual
Профиль формата : Advanced Simple@L5
Параметр BVOP формата : 1
Параметр QPel формата : Нет
Параметр GMC формата : Без точки перехода
Параметр матрицы формата : Выборочная
Идентификатор кодека : XVID
Идентификатор кодека/Подсказка : XviD
Продолжительность : 1 ч. 23 м.
Битрейт : 1650 Кбит/сек
Ширина : 688 пикселей
Высота : 512 пикселей
Соотношение сторон : 1,376
Частота кадров : 25,000 кадров/сек
Цветовое пространство : YUV
Субдискретизация насыщенности : 4:2:0
Битовая глубина : 8 бит
Тип развёртки : Прогрессивная
Метод сжатия : С потерями
Бит/(Пиксели*Кадры) : 0.187
Размер потока : 990 Мбайт (89%)
Библиотека кодирования : XviD 1.2.1 (UTC 2008-12-04)
Аудио
Идентификатор : 1
Формат : AC-3
Формат/Информация : Audio Coding 3
Расширение режима : CM (complete main)
Параметр Endianness формата : Big
Идентификатор кодека : 2000
Продолжительность : 1 ч. 23 м.
Вид битрейта : Постоянный
Битрейт : 192 Кбит/сек
Каналы : 2 канала
Расположение каналов : Front: L R
Частота : 48,0 КГц
Частота кадров : 31,250 кадров/сек (1536 spf)
Метод сжатия : С потерями
Размер потока : 115 Мбайт (10%)
Выравнивание : Разделение по промежуткам
Продолжительность промежутка : 40 мс. (1,00 видеокадр)
Время предзагрузки промежутка : 500 мс





   Похожие торренты   Торрент   Размер 
В этой теме нет новых непрочитанных сообщений. Таланты и поклонники (1955) DVDRip-AVC от New-Team

0 | 4

1.09 ГБ

В этой теме нет новых непрочитанных сообщений. Таланты и поклонники (1955) DVDRip от New-Team

2 | 3

742.38 МБ

В этой теме нет новых непрочитанных сообщений. Таланты и поклонники (1955) DVDRip от Кинорадиомагия

4 | 0

1.25 ГБ

В этой теме нет новых непрочитанных сообщений. Таланты и поклонники. Аркадий Райкин (2011) IPTVRip от Files-x

16 | 13

593.66 МБ

В этой теме нет новых непрочитанных сообщений. Мать (1955) DVDRip от New-Team

8 | 5

1.09 ГБ

В этой теме нет новых непрочитанных сообщений. Отелло (1955) DVDRip-AVC от New-Team

45 | 1

1.46 ГБ

В этой теме нет новых непрочитанных сообщений. Нестерка (1955) DVDRip от New-Team

4 | 2

1.46 ГБ




Вы не можете начинать темы
Вы не можете отвечать на сообщения
Вы не можете редактировать свои сообщения
Вы не можете удалять свои сообщения
Вы не можете добавлять вложения

Перейти:  
Для Мосгорсуда, Роскомнадзора и рекламодателей: mosgorsud-torrent[собачка]yandex.ru
 Вход
ppkBB3cker v.2 © 2008-2014 @ PPK
[ Time : 0.021s | 14 Queries | GZIP : Off ]
CGP output time : 0.025s | 5 Queries | GZIP : Off

Торрент трекер RUTOR.IN, Не можете зайти на rutor.org? Какой новый адрес рутор? Какое зеркало рутор? Не работает rutor.org и зеркала? Тогда наш торрент специально для вас. Rutor.in неофициальное зеркало rutor. В случае если у Вас заблокирован rutor или вдруг Вы не можете на него зайти, то Вы без труда сможете скачать бесплатно и без рекламы последние новинки кино, игр, сериалов и прочего у нас, на Rutor.in. Не нужно использовать прокси, чтобы зайти на рутор, достаточно воспользоваться нашим ресурсом. Все новые фильмы, игры, сериалы, книги и музыка за 2013 и 2014 годы через торрент бесплатно. Скачивайте фильмы в хорошем качестве, игры для пк, xbox, playstation без регистрации. У нас вы найдете новые Зарубежные сериалы и Русские сериалы 2013, 2014, 2015 годов. Оставайтесь с нами, качайте любимые фильмы, игры, сериалы, книги и музыку.