img image001 image001 image001 image001 image001 image001 image001 image001 image001 image001 image001 image001 image001 image001 image001

Planets Sun Sun Sun
Статистика раздачи
Автор: PriZraK | Размер: 742.38 МБ | Добавлен: 28 июн 2016
Раздают: 0    Качают: 1
Скачать торрент
Скачать торрент
Описание торрента

СообщениеДобавлено: 28 июн 2016 

Страна: СССР
Производство: Ленфильм
Жанр: драма
Год выпуска: 1955
Продолжительность: 01:23:54
Перевод: Не требуется
Cубтитры: нет
Оригинальная аудиодорожка: русский
Режиссер: Андрей Апсолон, Борис Дмоховский
В ролях:
Татьяна Ленникова, Павел Кадочников, Екатерина Александровская, Борис Смирнов, Николай Комиссаров, Евгений Лебедев, Константин Скоробогатов, Тамара Алёшина, Владимир Воронов, Геннадий Мичурин, Валентина Савельева, Николай Трофимов...
Полный список актёров
Описание:
По одноименной пьесе А.Н.Островского.
Талантливая актриса провинциального театра Негина должна покинуть сцену, так как чистота ее поведения несовместима с театральными нравами. Она любит студента Мелузова (Павел Кадочников), и оба мечтают о честной, трудовой жизни.
Суровая действительность разрушает ее планы. Прирожденная актриса, Негина не в силах оставить театр, и для того, чтобы служить искусству, она вынуждена, предав идеалы, продать себя. После мучительных сомнений актриса становится любовницей богатого помещика Великатова и уезжает с ним.
Мелузов, оставшись в одиночестве, гневно обличает развращенных "поклонников талантов", хозяев города.





Источник: DVD5 R5
Качество видео: DVDRip
Формат видео: AVI
Видео: 640x480 (4:3), 25 fps, XviD ~ 1099 kbps avg, 0.143 bit/pixel
Аудио: 48 kHz, MP3 2.0, 128 kbps
Раздача от:
Общее
Полное имя : Talanty.i.poklonniki.1955.DVDRip-745_[New-team]_by_AVP_Studio.avi
Формат : AVI
Формат/Информация : Audio Video Interleave
Размер файла : 742 Мбайт
Продолжительность : 1 ч. 23 м.
Общий поток : 1237 Кбит/сек
Программа кодирования : VirtualDubMod 1.5.10.3 | www.virtualdub-fr.org || (build 2550/release)
Библиотека кодирования : VirtualDubMod build 2550/release
Видео
Идентификатор : 0
Формат : MPEG-4 Visual
Профиль формата : Advanced Simple@L5
Параметр BVOP формата : 1
Параметр QPel формата : Нет
Параметр GMC формата : Без точки перехода
Параметр матрицы формата : Выборочная
Идентификатор кодека : XVID
Идентификатор кодека/Подсказка : XviD
Продолжительность : 1 ч. 23 м.
Битрейт : 1099 Кбит/сек
Ширина : 640 пикселей
Высота : 480 пикселей
Соотношение сторон : 4:3
Частота кадров : 25,000 кадров/сек
Цветовое пространство : YUV
Субдискретизация насыщенности : 4:2:0
Битовая глубина : 8 бит
Тип развёртки : Прогрессивная
Метод сжатия : С потерями
Бит/(Пиксели*Кадры) : 0.143
Размер потока : 660 Мбайт (89%)
Библиотека кодирования : XviD 1.2.1 (UTC 2008-12-04)
Аудио
Идентификатор : 1
Формат : MPEG Audio
Версия формата : Version 1
Профиль формата : Layer 3
Идентификатор кодека : 55
Идентификатор кодека/Подсказка : MP3
Продолжительность : 1 ч. 23 м.
Вид битрейта : Постоянный
Битрейт : 128 Кбит/сек
Каналы : 2 канала
Частота : 48,0 КГц
Метод сжатия : С потерями
Размер потока : 76,8 Мбайт (10%)
Выравнивание : Соединение по промежуткам
Продолжительность промежутка : 40 мс. (1,00 видеокадр)
Время предзагрузки промежутка : 504 мс.
Библиотека кодирования : LAME3.99r
Настройки программы : -m s -V 4 -q 2 -lowpass 17 -b 128





   Похожие торренты   Торрент   Размер 
В этой теме нет новых непрочитанных сообщений. Таланты и поклонники (1955) DVDRip-AVC от New-Team

0 | 4

1.09 ГБ

В этой теме нет новых непрочитанных сообщений. Таланты и поклонники (1955) DVDRip от New-Team

4 | 1

1.09 ГБ

В этой теме нет новых непрочитанных сообщений. Таланты и поклонники (1955) DVDRip от Кинорадиомагия

5 | 0

1.25 ГБ

В этой теме нет новых непрочитанных сообщений. Таланты и поклонники. Аркадий Райкин (2011) IPTVRip от Files-x

16 | 17

593.66 МБ

В этой теме нет новых непрочитанных сообщений. Мексиканец (1955) DVDRip от New-Team

12 | 1

743.75 МБ

В этой теме нет новых непрочитанных сообщений. Нестерка (1955) DVDRip-AVC от New-Team

20 | 1

1.46 ГБ

В этой теме нет новых непрочитанных сообщений. Мать (1955) DVDRip от New-Team

5 | 2

1.09 ГБ




Вы не можете начинать темы
Вы не можете отвечать на сообщения
Вы не можете редактировать свои сообщения
Вы не можете удалять свои сообщения
Вы не можете добавлять вложения

Перейти:  
Для Мосгорсуда, Роскомнадзора и рекламодателей: mosgorsud-torrent[собачка]yandex.ru
 Вход
ppkBB3cker v.2 © 2008-2014 @ PPK
[ Time : 0.038s | 16 Queries | GZIP : Off ]

cron