img image001 image001 image001 image001 image001 image001 image001 image001 image001 image001 image001 image001 image001 image001 image001

Planets Sun Sun Sun
Статистика раздачи
Автор: PriZraK | Размер: 1.46 ГБ | Добавлен: 29 июн 2016
Раздают: 22    Качают: 2
Скачать торрент
Скачать торрент
Описание торрента

СообщениеДобавлено: 29 июн 2016 

Страна: СССР
Производство: К/ст им. Горького
Жанр: мелодрама, история
Год выпуска: 1955
Продолжительность: 01:35:49
Перевод: Не требуется
Cубтитры: нет
Оригинальная аудиодорожка: русский
Режиссер: Исидор Анненский
В ролях:
Анатолий Вербицкий, Карина Шмаринова, Леонид Губанов, Михаил Астангов, Клавдия Еланская, Татьяна Пилецкая, Фёдор Никитин, Виталий Полицеймако, Татьяна Панкова, Виктор Кольцов (Кутаков), Георгий Георгиу...
Полный список актёров
Описание:
Экранизация одноименной главы романа М. Ю. Лермонтова «Герой нашего времени». Печорин, узнав об увлечении своего приятеля Грушницкого княжной Мери Лиговской, от скуки и желания досадить насквозь фальшивому юнкеру, влюбляет в себя девушку.





Источник: DVB
Качество видео: SATRip
Формат видео: AVI
Видео: 720x544 (4:3), 25 fps, XviD ~ 1979 kbps avg, 0.202 bit/pixel
Аудио: 48 kHz, Dolby Digital AC3 2.0, 192 kbps
Раздача от:
Общее
Полное имя : Knayjna.Meri.1955.SATRip_[New-team]_by_AVP_Studio.avi
Формат : AVI
Формат/Информация : Audio Video Interleave
Размер файла : 1,46 Гбайт
Продолжительность : 1 ч. 35 м.
Общий поток : 2181 Кбит/сек
Программа кодирования : VirtualDubMod 1.5.10.3 | www.virtualdub-fr.org || (build 2550/release)
Библиотека кодирования : VirtualDubMod build 2550/release
Видео
Идентификатор : 0
Формат : MPEG-4 Visual
Профиль формата : Advanced Simple@L5
Параметр BVOP формата : 1
Параметр QPel формата : Нет
Параметр GMC формата : Без точки перехода
Параметр матрицы формата : Выборочная
Идентификатор кодека : XVID
Идентификатор кодека/Подсказка : XviD
Продолжительность : 1 ч. 35 м.
Битрейт : 1979 Кбит/сек
Ширина : 720 пикселей
Высота : 544 пикселя
Соотношение сторон : 4:3
Частота кадров : 25,000 кадров/сек
Цветовое пространство : YUV
Субдискретизация насыщенности : 4:2:0
Битовая глубина : 8 бит
Тип развёртки : Прогрессивная
Метод сжатия : С потерями
Бит/(Пиксели*Кадры) : 0.202
Размер потока : 1,32 Гбайт (91%)
Библиотека кодирования : XviD 1.2.1 (UTC 2008-12-04)
Аудио
Идентификатор : 1
Формат : AC-3
Формат/Информация : Audio Coding 3
Расширение режима : CM (complete main)
Параметр Endianness формата : Big
Идентификатор кодека : 2000
Продолжительность : 1 ч. 35 м.
Вид битрейта : Постоянный
Битрейт : 192 Кбит/сек
Каналы : 2 канала
Расположение каналов : Front: L R
Частота : 48,0 КГц
Частота кадров : 31,250 кадров/сек (1536 spf)
Метод сжатия : С потерями
Размер потока : 132 Мбайт (9%)
Выравнивание : Разделение по промежуткам
Продолжительность промежутка : 40 мс. (1,00 видеокадр)
Время предзагрузки промежутка : 500 мс





   Похожие торренты   Торрент   Размер 
В этой теме нет новых непрочитанных сообщений. Княжна Мери (1955) SATRip-AVC от New-Team

26 | 4

1.46 ГБ

В этой теме нет новых непрочитанных сообщений. Княжна Мери (1955) SATRip от New-Team

2 | 8

745.43 МБ

В этой теме нет новых непрочитанных сообщений. Княжна Мери (1956) DVDRip от DGEYK

12 | 7

1.37 ГБ

В этой теме нет новых непрочитанных сообщений. Княжна из хрущевки / Княжна [01-04 из 04] (2013) SATRip by SANNYa

4 | 11

2.3 ГБ

В этой теме нет новых непрочитанных сообщений. Княжна из хрущевки / Княжна [01-04 из 04] (2013) SATRip от Files-x

307 | 9

2.27 ГБ

В этой теме нет новых непрочитанных сообщений. Княжна Мэри (1955) DVDRip-AVC

122 | 13

699.79 МБ

В этой теме нет новых непрочитанных сообщений. Княжна из хрущевки / Княжна [01-02 из 02] (2013) HDTV (1080i) от Files-x

6 | 3

10.38 ГБ




Вы не можете начинать темы
Вы не можете отвечать на сообщения
Вы не можете редактировать свои сообщения
Вы не можете удалять свои сообщения
Вы не можете добавлять вложения

Перейти:  
Для Мосгорсуда, Роскомнадзора и рекламодателей: mosgorsud-torrent[собачка]yandex.ru
 Вход
ppkBB3cker v.2 © 2008-2014 @ PPK
[ Time : 0.037s | 15 Queries | GZIP : Off ]

Торрент трекер RUTOR.IN, Не можете зайти на rutor.org? Какой новый адрес рутор? Какое зеркало рутор? Не работает rutor.org и зеркала? Тогда наш торрент специально для вас. Rutor.in неофициальное зеркало rutor. В случае если у Вас заблокирован rutor или вдруг Вы не можете на него зайти, то Вы без труда сможете скачать бесплатно и без рекламы последние новинки кино, игр, сериалов и прочего у нас, на Rutor.in. Не нужно использовать прокси, чтобы зайти на рутор, достаточно воспользоваться нашим ресурсом. Все новые фильмы, игры, сериалы, книги и музыка за 2013 и 2014 годы через торрент бесплатно. Скачивайте фильмы в хорошем качестве, игры для пк, xbox, playstation без регистрации. У нас вы найдете новые Зарубежные сериалы и Русские сериалы 2013, 2014, 2015 годов. Оставайтесь с нами, качайте любимые фильмы, игры, сериалы, книги и музыку.