img image001 image001 image001 image001 image001 image001 image001 image001 image001 image001 image001 image001 image001 image001 image001

Planets Sun Sun Sun
Статистика раздачи
Автор: Nickolas3434 | Размер: 1.17 ГБ | Добавлен: 02 июл 2016
Раздают: 38    Качают: 3
Скачать торрент
Скачать торрент
Описание торрента

СообщениеДобавлено: 02 июл 2016 


Информация о фильме
Название: Мы сделали это!
Год выхода: 2001
Жанр: комедия
Режиссер: Анатолий Эйрамджан
В ролях: А.Укупник, Л.Полищук, С.Степанченко, О.Толстецкая, Е.Зинченко, А.Носик, Ю.Максутов, К.Салех, О.Буракова, Даша Жердева
О фильме:
Опытная обольстительница увела своего партнера-музыканта и добропорядочного мужа из семьи и увезла его в Стамбул на сезонную халтуру - работу в ресторане. Брошенная жена в слезах не может поверить в вероломство мужа. А 12-летняя дочка Даша сразу начинает действовать - звонит своему “крутому” дяде Борису и просит вернуть обратно папу. Дядя Боря обещает и свое слово сдерживает...
Доп. информация:
Сценарист: Анатолий Эйрамджан
Оператор: Евгений Давыдов
Продюсер: Анатолий Эйрамджан

Запись потока *.ts с наземного цифрового телеканала "Беларусь 3", ремукс в *.mkv программой VideoReDo.
Страна: Российская Федерация
Студия: Новый Одеон
Продолжительность: 01:06:53
Файл
Кодек: AVC (H264)
Качество: DVB
Видео: AVC (H264), 720x576 (4:3), 25 fps, 2 190 Kbps
Звук: MP2, 256 kbps, 2 channels, 48 kHz
Семпл
Код:
General
Unique ID                      : 65975649020194440028062365038973819905 (0x31A272A3567BFF3DD421CE417E601C01)
Complete name                  : D:Новая  земля 2\00001Мы сделали это (2001)Мы сделали это (2001).mkv
Format                         : Matroska
Format version                 : Version 2
File size                      : 1.17 GiB
Duration                       : 1h 6mn
Overall bit rate               : 2 495 Kbps
Writing application            : Lavf52.64.2
Writing library                : Lavf52.64.2
Video
ID                             : 1
Format                         : AVC
Format/Info                    : Advanced Video Codec
Format profile                 : Main@L3.0
Format settings, CABAC         : Yes
Format settings, ReFrames      : 4 frames
Codec ID                       : V_MPEG4/ISO/AVC
Duration                       : 1h 6mn
Bit rate                       : 2 190 Kbps
Width                          : 720 pixels
Height                         : 576 pixels
Display aspect ratio           : 4:3
Original display aspect ratio  : 4:3
Frame rate mode                : Constant
Frame rate                     : 25.000 fps
Standard                       : PAL
Color space                    : YUV
Chroma subsampling             : 4:2:0
Bit depth                      : 8 bits
Scan type                      : MBAFF
Scan order                     : Top Field First
Bits/(Pixel*Frame)             : 0.211
Stream size                    : 1.02 GiB (88%)
Default                        : Yes
Forced                         : No
Color primaries                : BT.601 PAL
Transfer characteristics       : BT.470 System B, BT.470 System G
Matrix coefficients            : BT.601
Color range                    : Limited
Audio
ID                             : 2
Format                         : MPEG Audio
Format version                 : Version 1
Format profile                 : Layer 2
Codec ID                       : A_MPEG/L2
Codec ID/Hint                  : MP2
Duration                       : 1h 6mn
Bit rate mode                  : Constant
Bit rate                       : 256 Kbps
Channel(s)                     : 2 channels
Sampling rate                  : 48.0 KHz
Compression mode               : Lossy
Stream size                    : 122 MiB (10%)
Language                       : English
Default                        : Yes
Forced                         : No





   Похожие торренты   Торрент   Размер 
В этой теме нет новых непрочитанных сообщений. Славянский базар 2001. Антология (2001) DVB от AND03AND

6 | 4

988.18 МБ

В этой теме нет новых непрочитанных сообщений. Поводырь (2001) DVB от AND03AND

114 | 31

1.61 ГБ

В этой теме нет новых непрочитанных сообщений. Любовница из Москвы (2001) DVB от AND03AND

319 | 148

1.1 ГБ

В этой теме нет новых непрочитанных сообщений. Земля, на которой нам жить... (2001) SATRip от AND03AND

3 | 11

387.84 МБ

В этой теме нет новых непрочитанных сообщений. Элегия / Илья Репин в Здравнёво, Беларусь (2001) SATRip от AND03AND

19 | 2

289.52 МБ

В этой теме нет новых непрочитанных сообщений. За что? / Za co? (1995) DVB от AND03AND

14 | 2

1.82 ГБ

В этой теме нет новых непрочитанных сообщений. Облака (1973) DVB от AND03AND

11 | 5

1.41 ГБ




Вы не можете начинать темы
Вы не можете отвечать на сообщения
Вы не можете редактировать свои сообщения
Вы не можете удалять свои сообщения
Вы не можете добавлять вложения

Перейти:  
Для Мосгорсуда, Роскомнадзора и рекламодателей: mosgorsud-torrent[собачка]yandex.ru
 Вход
ppkBB3cker v.2 © 2008-2014 @ PPK
[ Time : 0.083s | 15 Queries | GZIP : Off ]

Торрент трекер RUTOR.IN, Не можете зайти на rutor.org? Какой новый адрес рутор? Какое зеркало рутор? Не работает rutor.org и зеркала? Тогда наш торрент специально для вас. Rutor.in неофициальное зеркало rutor. В случае если у Вас заблокирован rutor или вдруг Вы не можете на него зайти, то Вы без труда сможете скачать бесплатно и без рекламы последние новинки кино, игр, сериалов и прочего у нас, на Rutor.in. Не нужно использовать прокси, чтобы зайти на рутор, достаточно воспользоваться нашим ресурсом. Все новые фильмы, игры, сериалы, книги и музыка за 2013 и 2014 годы через торрент бесплатно. Скачивайте фильмы в хорошем качестве, игры для пк, xbox, playstation без регистрации. У нас вы найдете новые Зарубежные сериалы и Русские сериалы 2013, 2014, 2015 годов. Оставайтесь с нами, качайте любимые фильмы, игры, сериалы, книги и музыку.