img image001 image001 image001 image001 image001 image001 image001 image001 image001 image001 image001 image001 image001 image001 image001

Planets Sun Sun Sun
Статистика раздачи
Автор: Nickolas3434 | Размер: 1.19 ГБ | Добавлен: 02 июл 2016
Раздают: 13    Качают: 4
Скачать торрент
Скачать торрент
Описание торрента

СообщениеДобавлено: 02 июл 2016 


Информация о фильме
Название: Дочь моряка
Год выхода: 1941
Жанр: мелодрама
Режиссер: Георгий Тасин
В ролях: Иван Пельтцер, Вера Окунева, Тамара Беляева, Александр Чистяков, Иван Любезнов, Виктор Аркасов, Николай Комиссаров, Алексей Консовский, Николай Ивакин, Виктор Проклов, Андрей Мирошниченко
О фильме:
Выпускница мореходного училища Ирина Захарова возвращается в родную Одессу, где ее ждет отец, который еще не знает, что она, вопреки его желанию не закончила медицинский институт, а выучилась сугубо мужскому делу. Добившись распределения на самое старое судно «Победа» помощником капитана, Ирина увлекает команду личным примером и добивается существенных изменений в настроении матросов. После победы команды над штормом даже самые предвзятые скептики признают в Ирине толкового и бесстрашного моряка. На фоне этих событий развиваются любовные отношения между Ириной и штурманом новенькой «Абхазии» Василием Громовым.
Доп. информация:
Сценаристы: Георгий Гребнер, Александр Новогрудский
Оператор: Яков Кулиш
Композитор: Георгий (Юрий) Милютин
Художники: Алексей Уткин, Михаил Юферов
Производство: Одесская к/ст
Премьера: 10 мая 1942
Релиз:

Запись потока *.ts с наземного цифрового телеканала "Беларусь 3", ремукс в *.mkv программой VideoReDo.
Страна: СССР
Студия: Одесская к/ст
Продолжительность: 01:08:18
Перевод: не требует
Файл
Кодек: AVC (H264)
Качество: DVB
Видео: AVC (H264), 720x576 (4:3), 25 fps, 2 186 Kbps
Звук: MP2, 256 kbps, 2 channels, 48 kHz
Семпл
Код:
General
Unique ID                      : 53606660208821429842101770229115339969 (0x28544467F8A6ECBEEEECE671692944C1)
Complete name                  : D:Новая  земля 20001Дочь моряка (1941)Дочь моряка (1941).mkv
Format                         : Matroska
Format version                 : Version 2
File size                      : 1.19 GiB
Duration                       : 1h 8mn
Overall bit rate               : 2 492 Kbps
Writing application            : Lavf52.64.2
Writing library                : Lavf52.64.2
Video
ID                             : 1
Format                         : AVC
Format/Info                    : Advanced Video Codec
Format profile                 : Main@L3.0
Format settings, CABAC         : Yes
Format settings, ReFrames      : 4 frames
Format settings, GOP           : M=4, N=24
Codec ID                       : V_MPEG4/ISO/AVC
Duration                       : 1h 8mn
Bit rate                       : 2 186 Kbps
Width                          : 720 pixels
Height                         : 576 pixels
Display aspect ratio           : 4:3
Original display aspect ratio  : 4:3
Frame rate mode                : Constant
Frame rate                     : 25.000 fps
Standard                       : PAL
Color space                    : YUV
Chroma subsampling             : 4:2:0
Bit depth                      : 8 bits
Scan type                      : MBAFF
Scan order                     : Top Field First
Bits/(Pixel*Frame)             : 0.211
Stream size                    : 1.04 GiB (88%)
Default                        : Yes
Forced                         : No
Color primaries                : BT.601 PAL
Transfer characteristics       : BT.470 System B, BT.470 System G
Matrix coefficients            : BT.601
Color range                    : Limited
Audio
ID                             : 2
Format                         : MPEG Audio
Format version                 : Version 1
Format profile                 : Layer 2
Codec ID                       : A_MPEG/L2
Codec ID/Hint                  : MP2
Duration                       : 1h 8mn
Bit rate mode                  : Constant
Bit rate                       : 256 Kbps
Channel(s)                     : 2 channels
Sampling rate                  : 48.0 KHz
Compression mode               : Lossy
Stream size                    : 125 MiB (10%)
Language                       : English
Default                        : Yes
Forced                         : No





   Похожие торренты   Торрент   Размер 
В этой теме нет новых непрочитанных сообщений. Дочь моряка (1941) DVDRip от New-Team

7 | 7

1.09 ГБ

В этой теме нет новых непрочитанных сообщений. Дочь моряка (1941) DVDRip от New-Team

3 | 5

742.56 МБ

В этой теме нет новых непрочитанных сообщений. Дочь моряка (1941) DVDRip-AVC от New-Team

16 | 12

1.09 ГБ

В этой теме нет новых непрочитанных сообщений. Моя дочь, мой ангел / Моя дочь - заложница / Ma fille, mon ange (2007) DVDRip | Лицензия

9 | 5

1.46 ГБ

В этой теме нет новых непрочитанных сообщений. Генеральская дочь / Дочь генерала / The General's Daughter (1999) WEB-DLRip-AVC | P, P2, A

80 | 27

3.4 ГБ

В этой теме нет новых непрочитанных сообщений. Моя дочь, мой ангел / Моя дочь - заложница / Ma fille, mon ange / My Daughter, My Angel (2007) DVDRip-AVC от olegek70

10 | 3

1.45 ГБ

В этой теме нет новых непрочитанных сообщений. Гонконг 1941 / Hong Kong 1941 (1984) DVDRip от ExKinoRay

0 | 8

1.37 ГБ




Вы не можете начинать темы
Вы не можете отвечать на сообщения
Вы не можете редактировать свои сообщения
Вы не можете удалять свои сообщения
Вы не можете добавлять вложения

Перейти:  
Для Мосгорсуда, Роскомнадзора и рекламодателей: mosgorsud-torrent[собачка]yandex.ru
 Вход
ppkBB3cker v.2 © 2008-2014 @ PPK
[ Time : 4.156s | 13 Queries | GZIP : Off ]
CGP output time : 0.017s | 5 Queries | GZIP : Off

Торрент трекер RUTOR.IN, Не можете зайти на rutor.org? Какой новый адрес рутор? Какое зеркало рутор? Не работает rutor.org и зеркала? Тогда наш торрент специально для вас. Rutor.in неофициальное зеркало rutor. В случае если у Вас заблокирован rutor или вдруг Вы не можете на него зайти, то Вы без труда сможете скачать бесплатно и без рекламы последние новинки кино, игр, сериалов и прочего у нас, на Rutor.in. Не нужно использовать прокси, чтобы зайти на рутор, достаточно воспользоваться нашим ресурсом. Все новые фильмы, игры, сериалы, книги и музыка за 2013 и 2014 годы через торрент бесплатно. Скачивайте фильмы в хорошем качестве, игры для пк, xbox, playstation без регистрации. У нас вы найдете новые Зарубежные сериалы и Русские сериалы 2013, 2014, 2015 годов. Оставайтесь с нами, качайте любимые фильмы, игры, сериалы, книги и музыку.