img image001 image001 image001 image001 image001 image001 image001 image001 image001 image001 image001 image001 image001 image001 image001

Planets Sun Sun Sun
Статистика раздачи
Автор: Nickolas3434 | Размер: 1.37 ГБ | Добавлен: 02 июл 2016, 07:29
Раздают: 2004    Качают: 40
Скачать торрент
Скачать торрент
Описание торрента

СообщениеДобавлено: 02 июл 2016, 07:29 


Пятница
Страна: Россия
Производство: RSS Production
Год выпуска: 2016
Жанр: комедия
Продолжительность: 01:26:54
Режиссер: Евгений Шелякин
Авторы сценария: Евгений Шелякин, Ибрагим Магомедов, Саид Давдиев
В ролях: Данила Козловский, Сергей Бурунов, Настасья Самбурская, Катерина Шпица, Павел Деревянко, Кирилл Плетнёв, Антон Шагин, Ян Цапник, Евгений Стычкин
Описание: Что если азартный миллионер на одну ночь станет официантом, офисный лузер будет звездой самой яркой вечеринки, а двум «заклятым» друзьям придется искать кенгуру ночью в подмосковном лесу..? У каждого своя пятница..! Как она закончится для каждого, знает только утро субботы...

Перевод: не требуется (оригинал)
Субтитры: нет

Качество: НDRip
Формат: АVI
Видео кодек: XviD
Аудио кодек: АС3
Видео: 720x304 (2.35:1), 24.000 fps, XviD ~1 644 kbps avg
Аудио: 48.0 kHz, AC3 Dolby Digital, 3/2 (L,C,R,l,r) + LFE ch, ~448.00 kbps
Дата премьеры (РФ): 26 февраля 2016, «Централ Партнершип»

General
Format : AVI
Format/Info : Audio Video Interleave
Overall bit rate : 2 103 Kbps
Writing application : VirtualDubMod 1.5.10.3 | (build 2550/release)
Writing library : VirtualDubMod build 2550/release
Video
ID : 0
Format : MPEG-4 Visual
Format profile : Advanced Simple@L5
Format settings, BVOP : 2
Format settings, QPel : No
Format settings, GMC : No warppoints
Format settings, Matrix : Default (MPEG)
Codec ID : XVID
Codec ID/Hint : XviD
Bit rate : 1 644 Kbps
Width : 720 pixels
Height : 304 pixels
Display aspect ratio : 2.35:1
Frame rate : 24.000 fps
Color space : YUV
Chroma subsampling : 4:2:0
Bit depth : 8 bits
Scan type : Progressive
Compression mode : Lossy
Bits/(Pixel*Frame) : 0.313
Stream size : 11.1 MiB (78%)
Writing library : XviD 1.2.1 (UTC 2008-12-04)
Audio
ID : 1
Format : AC-3
Format/Info : Audio Coding 3
Mode extension : CM (complete main)
Format settings, Endianness : Big
Codec ID : 2000
Bit rate mode : Constant
Bit rate : 448 Kbps
Channel(s) : 6 channels
Channel positions : Front: L C R, Side: L R, LFE
Sampling rate : 48.0 KHz
Compression mode : Lossy
Stream size : 3.03 MiB (21%)
Alignment : Split accross interleaves
Interleave, duration : 42 ms (1.01 video frame)
Interleave, preload duration : 500 ms




   Похожие торренты   Торрент   Размер 
В этой теме нет новых непрочитанных сообщений. Пятница (2016) Blu-Ray | лицензия

70 | 6

15.63 ГБ

В этой теме нет новых непрочитанных сообщений. Пятница (2016) DVD9 | лицензия

0 | 0

5.14 ГБ

В этой теме нет новых непрочитанных сообщений. Пятница (2016) HDRip | КПК | Лицензия

465 | 23

392.69 МБ

В этой теме нет новых непрочитанных сообщений. Пятница (2016) BDRip 1080p | Лицензия

476 | 22

7.9 ГБ

В этой теме нет новых непрочитанных сообщений. Пятница (2016) HDRip от MegaPeer | Лицензия

251 | 4

745.34 МБ

В этой теме нет новых непрочитанных сообщений. Пятница (2016) BDRip-AVC от ExKinoRay | Лицензия

2324 | 98

1.63 ГБ

В этой теме нет новых непрочитанных сообщений. Пятница (2016) HDRip от Scarabey | Лицензия

490 | 8

1.45 ГБ




Вы не можете начинать темы
Вы не можете отвечать на сообщения
Вы не можете редактировать свои сообщения
Вы не можете удалять свои сообщения
Вы не можете добавлять вложения

Перейти:  
Для Мосгорсуда, Роскомнадзора и рекламодателей: mosgorsud-torrent[собачка]yandex.ru
Настройки
ppkBB3cker v.2 © 2008-2014 @ PPK
[ Time : 0.018s | 16 Queries | GZIP : Off ]
CGP [Extreme] output time : 0.00022s | 0 Queries | GZIP : Off

Торрент трекер RUTOR.IN, Не можете зайти на rutor.org? Какой новый адрес рутор? Какое зеркало рутор? Не работает rutor.org и зеркала? Тогда наш торрент специально для вас. Rutor.in неофициальное зеркало rutor. В случае если у Вас заблокирован rutor или вдруг Вы не можете на него зайти, то Вы без труда сможете скачать бесплатно и без рекламы последние новинки кино, игр, сериалов и прочего у нас, на Rutor.in. Не нужно использовать прокси, чтобы зайти на рутор, достаточно воспользоваться нашим ресурсом. Все новые фильмы, игры, сериалы, книги и музыка за 2013 и 2014 годы через торрент бесплатно. Скачивайте фильмы в хорошем качестве, игры для пк, xbox, playstation без регистрации. У нас вы найдете новые Зарубежные сериалы и Русские сериалы 2013, 2014, 2015 годов. Оставайтесь с нами, качайте любимые фильмы, игры, сериалы, книги и музыку.