img image001 image001 image001 image001 image001 image001 image001 image001 image001 image001 image001 image001 image001 image001 image001

Planets Sun Sun Sun
Статистика раздачи
Автор: Nickolas3434 | Размер: 1.09 ГБ | Добавлен: 03 июл 2016
Раздают: 13    Качают: 1
Скачать торрент
Скачать торрент
Описание торрента

СообщениеДобавлено: 03 июл 2016 

Страна: СССР
Производство: Мосфильм
Жанр: фантастика
Год выпуска: 1955
Продолжительность: 01:15:44
Перевод: Не требуется
Cубтитры: нет
Оригинальная аудиодорожка: русский
Режиссер: Абрам Роом, Дмитрий Васильев
В ролях:
Иван Переверзев, Константин Барташевич, Михаил Астангов, Аполлон Ячницкий, Данута Столярская, Елена Измайлова...
Полный список актёров
Описание:
Экранизация пьесы И.Луковского "Тайна вечной ночи".
На дне Тихого океана произошел взрыв, в результате которого подводная растительность начала быстро увеличиваться в размерах. Ученый Денисов предполагает, что это происходит под воздействием радиоактивного облучения после взрыва. На дне обнаружено растение, обладающее защитными свойствами против радиации...



Источник: DVD9 R5
Качество видео: DVDRip-AVC
Формат видео: MKV
Видео: 712->762x572 (4:3), 25 fps, H264 ~ 1673 kbps avg, 0.164 bit/pixel
Аудио: 48 kHz, Dolby Digital AC3 2.0, 192 kbps русский
Аудио: 48 kHz, Dolby Digital AC3 2.0, 192 kbps немецкий
Раздача от:
Общее
Полное имя : Tayna.vechnoy.nochi.1955.DVDRip-AVC_[New-team]_by_AVP_Studio.mkv
Формат : Matroska
Версия формата : Version 4 / Version 2
Размер файла : 1,09 Гбайт
Продолжительность : 1 ч. 15 м.
Общий поток : 2057 Кбит/сек
Название фильма : Тайна вечной ночи (1955)
Дата кодирования : UTC 2016-07-01 11:40:24
Программа кодирования : mkvmerge v9.2.0 ('Photograph') 64bit
Библиотека кодирования : libebml v1.3.3 + libmatroska v1.4.4
Видео
Идентификатор : 1
Формат : AVC
Формат/Информация : Advanced Video Codec
Профиль формата : High@L4.1
Параметр CABAC формата : Да
Параметр ReFrames формата : 10 кадров
Идентификатор кодека : V_MPEG4/ISO/AVC
Продолжительность : 1 ч. 15 м.
Битрейт : 1673 Кбит/сек
Ширина : 712 пикселей
Высота : 572 пикселя
Соотношение сторон : 4:3
Соотношение сторон в оригинале : 4:3
Режим частоты кадров : Постоянный
Частота кадров : 25,000 кадров/сек
Цветовое пространство : YUV
Субдискретизация насыщенности : 4:2:0
Битовая глубина : 8 бит
Тип развёртки : Прогрессивная
Бит/(Пиксели*Кадры) : 0.164
Размер потока : 906 Мбайт (81%)
Заголовок : Источник DVD9
Библиотека кодирования : x264 core 148 r2597 e86f3a1
Настройки программы : cabac=1 / ref=10 / deblock=1:-2:-1 / analyse=0x3:0x113 / me=umh / subme=10 / psy=1 / psy_rd=1.00:0.00 / mixed_ref=1 / me_range=32 / chroma_me=1 / trellis=2 / 8x8dct=1 / cqm=0 / deadzone=21,11 / fast_pskip=1 / chroma_qp_offset=-2 / threads=6 / lookahead_threads=1 / sliced_threads=0 / nr=0 / decimate=0 / interlaced=0 / bluray_compat=0 / constrained_intra=0 / bframes=8 / b_pyramid=2 / b_adapt=2 / b_bias=0 / direct=3 / weightb=1 / open_gop=0 / weightp=2 / keyint=250 / keyint_min=25 / scenecut=40 / intra_refresh=0 / rc=2pass / mbtree=0 / bitrate=1673 / ratetol=1.0 / qcomp=0.60 / qpmin=0 / qpmax=69 / qpstep=4 / cplxblur=20.0 / qblur=0.5 / ip_ratio=1.40 / pb_ratio=1.30 / aq=1:1.00
Язык : Russian
Default : Да
Forced : Нет
Аудио #1
Идентификатор : 2
Формат : AC-3
Формат/Информация : Audio Coding 3
Расширение режима : CM (complete main)
Параметр Endianness формата : Big
Идентификатор кодека : A_AC3
Продолжительность : 1 ч. 15 м.
Вид битрейта : Постоянный
Битрейт : 192 Кбит/сек
Каналы : 2 канала
Расположение каналов : Front: L R
Частота : 48,0 КГц
Частота кадров : 31,250 кадров/сек (1536 spf)
Метод сжатия : С потерями
Размер потока : 103 Мбайт (9%)
Заголовок : Источник DVD9
Язык : Russian
Default : Да
Forced : Нет
Аудио #2
Идентификатор : 3
Формат : AC-3
Формат/Информация : Audio Coding 3
Расширение режима : CM (complete main)
Параметр Endianness формата : Big
Идентификатор кодека : A_AC3
Продолжительность : 1 ч. 15 м.
Вид битрейта : Постоянный
Битрейт : 192 Кбит/сек
Каналы : 2 канала
Расположение каналов : Front: L R
Частота : 48,0 КГц
Частота кадров : 31,250 кадров/сек (1536 spf)
Метод сжатия : С потерями
Размер потока : 104 Мбайт (9%)
Заголовок : Источник DVD9
Язык : German
Default : Нет
Forced : Нет





   Похожие торренты   Торрент   Размер 
В этой теме нет новых непрочитанных сообщений. Тайна вечной ночи (1955) DVDRip от New-Team

7 | 4

743.38 МБ

В этой теме нет новых непрочитанных сообщений. Тайна вечной ночи (1955) DVDRip от New-Team

12 | 1

1.09 ГБ

В этой теме нет новых непрочитанных сообщений. Тайна вечной ночи (1955) DVDRip от R.G. Mega Best

1 | 2

1001.83 МБ

В этой теме нет новых непрочитанных сообщений. Тайна двух океанов (1955) DVDRip-AVC от Youtracker

20 | 13

2.19 ГБ

В этой теме нет новых непрочитанных сообщений. Тайна двух океанов (1955) DVDRip от Youtracker

8 | 3

2.19 ГБ

В этой теме нет новых непрочитанных сообщений. Тайна двух океанов (1955) DVDRip от Youtracker

196 | 17

1.46 ГБ

В этой теме нет новых непрочитанных сообщений. Нестерка (1955) DVDRip от New-Team

15 | 1

745.12 МБ




Вы не можете начинать темы
Вы не можете отвечать на сообщения
Вы не можете редактировать свои сообщения
Вы не можете удалять свои сообщения
Вы не можете добавлять вложения

Перейти:  
Для Мосгорсуда, Роскомнадзора и рекламодателей: mosgorsud-torrent[собачка]yandex.ru
 Вход
ppkBB3cker v.2 © 2008-2014 @ PPK
[ Time : 0.044s | 18 Queries | GZIP : Off ]

cron