img image001 image001 image001 image001 image001 image001 image001 image001 image001 image001 image001 image001 image001 image001 image001

Planets Sun Sun Sun
Статистика раздачи
Автор: Nickolas3434 | Размер: 743.22 МБ | Добавлен: 04 июл 2016
Раздают: 87    Качают: 4
Скачать торрент
Скачать торрент
Описание торрента

СообщениеДобавлено: 04 июл 2016 


Информация о фильме
Название: Там, где кончается море
Год выхода: 2007
Жанр: Криминальный, драма
Режиссёр: Артур Дубокс
В ролях: Артур Дубокс, Никита Гусев, Владимир Епископосян, Максим Ручкин, Сола Авакян, Олег Макаренков, Петерис Лиепиньш, Михаил Шахназаров
О фильме: Фильм – это рассказ об одном из влиятельнейших олигархов Балтии и о представителях московских криминальных группировок, прежние отношения которых обостряют герои главных ролей – Алекс и мальчик по имени Никита. В фильме показаны охота на людей, беспощадная расплата и амбиции. Но в тоже время сюжету картины не чужды человеческие отношения и обоюдная привязанность...

Страна: Россия, Латвия
Студия: ENOLA Production
Продолжительность: 01:32:09
Перевод: Не требуется (оригинальный)
Файл
Формат: avi
Качество: DVDRip (DVD5)
Видео: XviD, 640х352, 25fps, 990kbps
Аудио: MPEG Layer 3, 2ch, 48000Hz, 128kbps

General
Complete name : Tam.Gde.Konchaetsa.More.2007.O.DVDRip.700.CurHaJI.avi
Format : AVI
Format/Info : Audio Video Interleave
File size : 743 MiB
Duration : 1h 32mn
Overall bit rate : 1 128 Kbps
Movie name : Tam.Gde.Konchaetsa.More.2007.O.DVDRip.700.CurHaJI
Writing application : VirtualDubMod 1.5.10.3 | www.virtualdub-fr.org || (build 2550/release)
Writing library : VirtualDub build 35491/release
Video
ID : 0
Format : MPEG-4 Visual
Format profile : Advanced Simple@L5
Format settings, BVOP : 2
Format settings, QPel : No
Format settings, GMC : No warppoints
Format settings, Matrix : Custom
Codec ID : XVID
Codec ID/Hint : XviD
Duration : 1h 32mn
Bit rate : 990 Kbps
Width : 640 pixels
Height : 352 pixels
Display aspect ratio : 16:9
Frame rate : 25.000 fps
Color space : YUV
Chroma subsampling : 4:2:0
Bit depth : 8 bits
Scan type : Progressive
Compression mode : Lossy
Bits/(Pixel*Frame) : 0.176
Stream size : 652 MiB (88%)
Writing library : XviD 73
Audio
ID : 1
Format : MPEG Audio
Format version : Version 1
Format profile : Layer 3
Codec ID : 55
Codec ID/Hint : MP3
Duration : 1h 32mn
Bit rate mode : Constant
Bit rate : 128 Kbps
Channel(s) : 2 channels
Sampling rate : 48.0 KHz
Compression mode : Lossy
Stream size : 84.4 MiB (11%)
Alignment : Aligned on interleaves
Interleave, duration : 40 ms (1.00 video frame)
Interleave, preload duration : 504 ms
Writing library : LAME3.99r
Encoding settings : -m s -V 4 -q 2 -lowpass 17 -b 128


Релиз от:



   Похожие торренты   Торрент   Размер 
В этой теме нет новых непрочитанных сообщений. Там, где кончается море (2007) DVDRip

48 | 10

1.37 ГБ

В этой теме нет новых непрочитанных сообщений. Не кончается синее море [S01] (2013) SATRip-AVC от Files-x

51 | 24

5.36 ГБ

В этой теме нет новых непрочитанных сообщений. Смех и грех (Не кончается синее море) [01-04 из 08] (2013) DVB от Files-x

47 | 24

10.91 ГБ

В этой теме нет новых непрочитанных сообщений. Смех и грех (Не кончается синее море) [01-04 из 08] (2013) DVB от Files-x

30 | 3

8.2 ГБ

В этой теме нет новых непрочитанных сообщений. Смех и грех (Не кончается синее море) [01-04 из 08] (2013) SATRip от Files-х

102 | 21

3.52 ГБ

В этой теме нет новых непрочитанных сообщений. Смех и грех (Не кончается синее море) [01-04 из 08] (2013) SATRip от Files-х

60 | 24

2.34 ГБ

В этой теме нет новых непрочитанных сообщений. Смех и грех (Не кончается синее море) [01-04 из 08] (2013) SATRip от Files-х

720 | 146

4.69 ГБ




Вы не можете начинать темы
Вы не можете отвечать на сообщения
Вы не можете редактировать свои сообщения
Вы не можете удалять свои сообщения
Вы не можете добавлять вложения

Перейти:  
Для Мосгорсуда, Роскомнадзора и рекламодателей: mosgorsud-torrent[собачка]yandex.ru
 Вход
ppkBB3cker v.2 © 2008-2014 @ PPK
[ Time : 0.055s | 15 Queries | GZIP : Off ]

Торрент трекер RUTOR.IN, Не можете зайти на rutor.org? Какой новый адрес рутор? Какое зеркало рутор? Не работает rutor.org и зеркала? Тогда наш торрент специально для вас. Rutor.in неофициальное зеркало rutor. В случае если у Вас заблокирован rutor или вдруг Вы не можете на него зайти, то Вы без труда сможете скачать бесплатно и без рекламы последние новинки кино, игр, сериалов и прочего у нас, на Rutor.in. Не нужно использовать прокси, чтобы зайти на рутор, достаточно воспользоваться нашим ресурсом. Все новые фильмы, игры, сериалы, книги и музыка за 2013 и 2014 годы через торрент бесплатно. Скачивайте фильмы в хорошем качестве, игры для пк, xbox, playstation без регистрации. У нас вы найдете новые Зарубежные сериалы и Русские сериалы 2013, 2014, 2015 годов. Оставайтесь с нами, качайте любимые фильмы, игры, сериалы, книги и музыку.