img image001 image001 image001 image001 image001 image001 image001 image001 image001 image001 image001 image001 image001 image001 image001

Planets Sun Sun Sun
Статистика раздачи
Автор: Nickolas3434 | Размер: 745.65 МБ | Добавлен: 04 июл 2016
Раздают: 13    Качают: 1
Скачать торрент
Скачать торрент
Описание торрента

СообщениеДобавлено: 04 июл 2016 

Страна: СССР
Производство: Бакинская киностудия
Жанр: комедия
Год выпуска: 1955
Продолжительность: 01:36:50
Перевод: Субтитры
Cубтитры: русский
Оригинальная аудиодорожка: азербайджанский
Режиссер: Лятиф Сафаров
В ролях:
Рашид Бейбутов, Тамара Чернова, Фаик Мустафаев, Агасадых Герайбейли, Мамедрза Шейхзаманов, Исмаил Эфендиев, Константин Мякишев, Татьяна Пельтцер, Лютфи Мамедбеков, Мухлис Джани-Заде, Исай Гуров, Минавар (Мина) Калантарли, Мамед Садыков, Ага Гусейн Джавадов, Софа Басирзаде, Сона Гаджиева, О. Эфендиев, Л. Белых, И. Юзбашев...
Полный список актёров
Описание:
Бахтияр Мурадов (Рашид Бейбутов), обладатель прекрасного голоса, мечтает стать нефтяником, как и его отец. Герой становится буровым мастером, а его любимая девушка Саша Верховская уезжает в Москву поступать в геологоразведочный институт. Вместе с ней едет и соперник Бахтияра толстяк Юсуф, мечтающий посвятить себя торговому делу. История складывается таким образом, что певец не может не петь, торгаш не может не торговать, а любимая не может забыть любимого...





Источник: DVD5 R5
Качество видео: DVDRip
Формат видео: AVI
Видео: 576x432 (4:3), 25 fps, XviD ~ 939 kbps avg, 0.151 bit/pixel
Аудио: 48 kHz, MP3 2.0, 128 kbps
Субтитры: SoftSub (srt)
Раздача от:
Общее
Полное имя : Lyubimaya.pesnya.1955.DVDRip-745_[New-team]_by_AVP_Studio.avi
Формат : AVI
Формат/Информация : Audio Video Interleave
Размер файла : 746 Мбайт
Продолжительность : 1 ч. 36 м.
Общий поток : 1077 Кбит/сек
Программа кодирования : VirtualDubMod 1.5.10.3 | www.virtualdub-fr.org || (build 2550/release)
Библиотека кодирования : VirtualDubMod build 2550/release
Видео
Идентификатор : 0
Формат : MPEG-4 Visual
Профиль формата : Advanced Simple@L5
Параметр BVOP формата : 1
Параметр QPel формата : Нет
Параметр GMC формата : Без точки перехода
Параметр матрицы формата : Выборочная
Идентификатор кодека : XVID
Идентификатор кодека/Подсказка : XviD
Продолжительность : 1 ч. 36 м.
Битрейт : 939 Кбит/сек
Ширина : 576 пикселей
Высота : 432 пикселя
Соотношение сторон : 4:3
Частота кадров : 25,000 кадров/сек
Цветовое пространство : YUV
Субдискретизация насыщенности : 4:2:0
Битовая глубина : 8 бит
Тип развёртки : Прогрессивная
Метод сжатия : С потерями
Бит/(Пиксели*Кадры) : 0.151
Размер потока : 650 Мбайт (87%)
Библиотека кодирования : XviD 1.2.1 (UTC 2008-12-04)
Аудио
Идентификатор : 1
Формат : MPEG Audio
Версия формата : Version 1
Профиль формата : Layer 3
Идентификатор кодека : 55
Идентификатор кодека/Подсказка : MP3
Продолжительность : 1 ч. 36 м.
Вид битрейта : Постоянный
Битрейт : 128 Кбит/сек
Каналы : 2 канала
Частота : 48,0 КГц
Метод сжатия : С потерями
Размер потока : 88,7 Мбайт (12%)
Выравнивание : Соединение по промежуткам
Продолжительность промежутка : 40 мс. (1,00 видеокадр)
Время предзагрузки промежутка : 504 мс.
Библиотека кодирования : LAME3.99r
Настройки программы : -m s -V 4 -q 2 -lowpass 17 -b 128





   Похожие торренты   Торрент   Размер 
В этой теме нет новых непрочитанных сообщений. Любимая песня (1955) DVDRip от New-Team

1 | 1

1.46 ГБ

В этой теме нет новых непрочитанных сообщений. Любимая песня (1955) DVDRip-AVC от New-Team

6 | 7

1.46 ГБ

В этой теме нет новых непрочитанных сообщений. Воробьиная песня / Песня соловьев / Avaze gonjeshk-ha / The Song of Sparrows (2008) DVDRip

1 | 1

699.64 МБ

В этой теме нет новых непрочитанных сообщений. Песня Солнцу / Полночное Солнце / Taiyo no uta / A Song to the Sun / Midnight Sun (2006) DVDRip от BTT-TEAM

5 | 1

2.19 ГБ

В этой теме нет новых непрочитанных сообщений. Два капитана (1955) DVDRip от New-Team

24 | 1

1.46 ГБ

В этой теме нет новых непрочитанных сообщений. Попрыгунья (1955) DVDRip-AVC от New-Team

13 | 1

1.09 ГБ

В этой теме нет новых непрочитанных сообщений. Два капитана (1955) DVDRip-AVC от New-Team

59 | 7

1.46 ГБ




Вы не можете начинать темы
Вы не можете отвечать на сообщения
Вы не можете редактировать свои сообщения
Вы не можете удалять свои сообщения
Вы не можете добавлять вложения

Перейти:  
Для Мосгорсуда, Роскомнадзора и рекламодателей: mosgorsud-torrent[собачка]yandex.ru
 Вход
ppkBB3cker v.2 © 2008-2014 @ PPK
[ Time : 0.072s | 15 Queries | GZIP : Off ]

Торрент трекер RUTOR.IN, Не можете зайти на rutor.org? Какой новый адрес рутор? Какое зеркало рутор? Не работает rutor.org и зеркала? Тогда наш торрент специально для вас. Rutor.in неофициальное зеркало rutor. В случае если у Вас заблокирован rutor или вдруг Вы не можете на него зайти, то Вы без труда сможете скачать бесплатно и без рекламы последние новинки кино, игр, сериалов и прочего у нас, на Rutor.in. Не нужно использовать прокси, чтобы зайти на рутор, достаточно воспользоваться нашим ресурсом. Все новые фильмы, игры, сериалы, книги и музыка за 2013 и 2014 годы через торрент бесплатно. Скачивайте фильмы в хорошем качестве, игры для пк, xbox, playstation без регистрации. У нас вы найдете новые Зарубежные сериалы и Русские сериалы 2013, 2014, 2015 годов. Оставайтесь с нами, качайте любимые фильмы, игры, сериалы, книги и музыку.