img image001 image001 image001 image001 image001 image001 image001 image001 image001 image001 image001 image001 image001 image001 image001

Planets Sun Sun Sun
Статистика раздачи
Автор: Nickolas3434 | Размер: 7 ГБ | Добавлен: 08 июл 2016
Раздают: 75    Качают: 10
Скачать торрент
Скачать торрент
Описание торрента

СообщениеДобавлено: 08 июл 2016 


Информация о фильме
Название: Служебный роман
Год выхода: 1977
Жанр: Комедия, мелодрама
Режиссер: Эльдар Рязанов
В ролях: Алиса Фрейндлих, Андрей Мягков, Светлана Немоляева, Олег Басилашвили, Лия Ахеджакова, Людмила Иванова, Петр Щербаков, Нелли Пшенная, Надежда Репина, Виктор Филиппов, Георгий Бурков, Мария Виноградова, Александр Фатюшин, Эльдар Рязанов, Людмила Купина, Владимир Плотников, Зоя Исаева, Любовь Калюжная, Валентина Ушакова, Татьяна Игнатова, Велта Жигуре, Лидия Драновская, Инна Выходцева, Екатерина Воронина, Олеся Иванова, Вера Бурлакова, Ксения Бороздина
О фильме:
Анатолий Ефремович Новосельцев, рядовой служащий одного статистического управления, — человек робкий и застенчивый. Для него неплохо бы получить вакантное место зав. отделом, но он не знает как подступиться к этому делу. Старый приятель Самохвалов советует ему приударить за Людмилой Прокопьевной Калугиной, — сухарем в юбке и директором заведения…

Страна: СССР
Студия: Мосфильм
Продолжительность: 02:36:40
Перевод: не требуется
Файл
Кодек: x264
Качество: BDRip 720p
Видео: 944x720 (4:3), 23,976 fps, AVC (H.264), High@L4.1, ~4885 Kbps avg, 0.299 bit/pixel
Звук: Русский, DTS, 6 ch, 1510 Кбит/с
General
Unique ID : 186520161101594986257487079301641777808 (0x8C5279F20EA2BEF49077602B2971B290)
Complete name : J:СборкаСлужебный роман.1977.720p.BluRay.x264.DTS.mkv
Format : Matroska
Format version : Version 4 / Version 2
File size : 7.00 GiB
Duration : 2h 36mn
Overall bit rate : 6 397 Kbps
Encoded date : UTC 2016-07-03 17:21:01
Writing application : mkvmerge v7.3.0 ('Nouages') 32bit built on Oct 22 2014 18:44:01
Writing library : libebml v1.3.0 + libmatroska v1.4.1
DURATION : 02:36:40.278000000
NUMBER_OF_FRAMES : 881276
NUMBER_OF_BYTES : 1773127312
_STATISTICS_WRITING_APP : mkvmerge v7.3.0 ('Nouages') 32bit built on Oct 22 2014 18:44:01
_STATISTICS_WRITING_DATE_UTC : 2016-07-03 17:21:01
_STATISTICS_TAGS : BPS DURATION NUMBER_OF_FRAMES NUMBER_OF_BYTES
Video #1
ID : 1
Format : AVC
Format/Info : Advanced Video Codec
Format profile : High@L4.1
Format settings, CABAC : Yes
Format settings, ReFrames : 12 frames
Codec ID : V_MPEG4/ISO/AVC
Duration : 2h 36mn
Bit rate : 4 885 Kbps
Width : 946 pixels
Height : 720 pixels
Display aspect ratio : 4:3
Frame rate mode : Constant
Frame rate : 23.976 fps
Color space : YUV
Chroma subsampling : 4:2:0
Bit depth : 8 bits
Scan type : Progressive
Bits/(Pixel*Frame) : 0.299
Stream size : 5.21 GiB (74%)
Writing library : x264 core 124 r2197 69a0443
Encoding settings : cabac=1 / ref=12 / deblock=1:-3:-3 / analyse=0x3:0x133 / me=umh / subme=11 / psy=1 / psy_rd=0.90:0.00 / mixed_ref=1 / me_range=32 / chroma_me=1 / trellis=2 / 8x8dct=1 / cqm=0 / deadzone=21,11 / fast_pskip=0 / chroma_qp_offset=-2 / threads=12 / sliced_threads=0 / nr=0 / decimate=1 / interlaced=0 / bluray_compat=0 / constrained_intra=0 / bframes=8 / b_pyramid=2 / b_adapt=2 / b_bias=0 / direct=3 / weightb=1 / open_gop=0 / weightp=2 / keyint=250 / keyint_min=23 / scenecut=40 / intra_refresh=0 / rc_lookahead=250 / rc=2pass / mbtree=1 / bitrate=4885 / ratetol=1.0 / qcomp=0.60 / qpmin=0 / qpmax=69 / qpstep=4 / cplxblur=20.0 / qblur=0.5 / ip_ratio=1.40 / aq=2:0.95
Language : Russian
Default : Yes
Forced : No
DURATION : 02:36:40.266000000
NUMBER_OF_FRAMES : 225381
NUMBER_OF_BYTES : 5740444159
_STATISTICS_WRITING_APP : mkvmerge v7.3.0 ('Nouages') 32bit built on Oct 22 2014 18:44:01
_STATISTICS_WRITING_DATE_UTC : 2016-07-03 17:21:01
_STATISTICS_TAGS : BPS DURATION NUMBER_OF_FRAMES NUMBER_OF_BYTES
Audio #2
ID : 2
Format : DTS
Format/Info : Digital Theater Systems
Mode : 16
Format settings, Endianness : Big
Codec ID : A_DTS
Duration : 2h 36mn
Bit rate mode : Constant
Bit rate : 1 509 Kbps
Channel(s) : 6 channels
Channel positions : Front: L C R, Side: L R, LFE
Sampling rate : 48.0 KHz
Bit depth : 24 bits
Compression mode : Lossy
Stream size : 1.65 GiB (24%)
Language : Russian
Default : Yes
Forced : No





   Похожие торренты   Торрент   Размер 
В этой теме нет новых непрочитанных сообщений. Служебный роман (1977) BDRip 720p

19 | 2

4.28 ГБ

В этой теме нет новых непрочитанных сообщений. Служебный роман (1977) BDRip 720p

30 | 8

4.67 ГБ

В этой теме нет новых непрочитанных сообщений. Служебный роман (1977) BDRip 720p от Youtracker

99 | 5

4.37 ГБ

В этой теме нет новых непрочитанных сообщений. Служебный роман (1977) BDRip

1197 | 51

1.46 ГБ

В этой теме нет новых непрочитанных сообщений. Служебный роман (1977) BDRip-AVC

19 | 3

2.17 ГБ

В этой теме нет новых непрочитанных сообщений. Служебный роман (1977) BDRip-AVC

11 | 3

3.78 ГБ

В этой теме нет новых непрочитанных сообщений. Служебный роман (1977) BDRip 1080p

14 | 11

13.75 ГБ




Вы не можете начинать темы
Вы не можете отвечать на сообщения
Вы не можете редактировать свои сообщения
Вы не можете удалять свои сообщения
Вы не можете добавлять вложения

Перейти:  
Для Мосгорсуда, Роскомнадзора и рекламодателей: mosgorsud-torrent[собачка]yandex.ru
 Вход
ppkBB3cker v.2 © 2008-2014 @ PPK
[ Time : 0.977s | 14 Queries | GZIP : On ]

Торрент трекер RUTOR.IN, Не можете зайти на rutor.org? Какой новый адрес рутор? Какое зеркало рутор? Не работает rutor.org и зеркала? Тогда наш торрент специально для вас. Rutor.in неофициальное зеркало rutor. В случае если у Вас заблокирован rutor или вдруг Вы не можете на него зайти, то Вы без труда сможете скачать бесплатно и без рекламы последние новинки кино, игр, сериалов и прочего у нас, на Rutor.in. Не нужно использовать прокси, чтобы зайти на рутор, достаточно воспользоваться нашим ресурсом. Все новые фильмы, игры, сериалы, книги и музыка за 2013 и 2014 годы через торрент бесплатно. Скачивайте фильмы в хорошем качестве, игры для пк, xbox, playstation без регистрации. У нас вы найдете новые Зарубежные сериалы и Русские сериалы 2013, 2014, 2015 годов. Оставайтесь с нами, качайте любимые фильмы, игры, сериалы, книги и музыку.