img image001 image001 image001 image001 image001 image001 image001 image001 image001 image001 image001 image001 image001 image001 image001

Planets Sun Sun Sun
Статистика раздачи
Автор: Nickolas3434 | Размер: 1.71 ГБ | Добавлен: 08 июл 2016
Раздают: 106    Качают: 12
Скачать торрент
Скачать торрент
Описание торрента

СообщениеДобавлено: 08 июл 2016 



Информация о фильме
Название: Государственная граница. Фильм 11. Смертельный улов
Год выхода: 2014
Жанр: Историко-приключенческий телесериал
Режиссер: Игорь Четвериков
В ролях: Андрей Фролов, Михаил Мартьянов, Вероника Пляшкевич, Матвей Шкуратов, Сергей Власов, Александр Ильин, Елена Родак-Шкуратова, Сергей Журавель, Евгений Казакевич, Андрей Сенькин, Александр Гиренок, Сергей Пукита, Александр Бранкевич, Артем Бородич, Сергей Савенков, Валерий Зеленский
О фильме:
Белорусские пограничники задерживают нелегально перевозимый через днепровский участок груз. Но контрабандой оказывается один из похищенных на Украине противозенитных ракетных комплексов. Для разбирательства по этому делу подключается ОСАМ – отдельная служба активных мероприятий. Так же, для участия в расследовании украинская сторона присылает своего агента. Упустить ПЗРК нельзя, но между сторонами нет доверия.
Доп. информация:
Сценаристы: Валентин Залужный, Игорь Четвериков (уч.), Илья Цофин (уч.)
Оператор: Максим Куровский
Композитор: Владимир Сивицкий
Художник: Андрей Толстик
Производство: Беларусьфильм

Запись потока *.ts с наземного цифрового телеканала "СТВ", ремукс в *.mkv программой VideoReDo.
Благодарность: за помощь с недостающим материалом Bartimeyse и PavelDAS. Обоим большое спасибо!
Страна: Республика Беларусь
Студия: Беларусьфильм
Продолжительность: 00:46:58 + 00:50:09
Перевод: не требует
Файл
Кодек: AVC (H264)
Качество: DVB
Видео 01: AVC (H264), 720x576 (4:3), 25 fps, 2 203 Kbps
Видео 02: AVC (H264), 720x576 (4:3), 25 fps, 2 224 Kbps
Звук: AVC (H264), 720x576 (4:3), 25 fps, 2 224 Kbps
Семпл
Код:
General
Unique ID                      : 7254266125460639271746813393142081281 (0x5751EEF144135D66A771B64FBF8E701)
Complete name                  : D:Новая  земля 2Художественные фильмыГосударственная границаГосударственная граница. Фильм 11. Смертельный улов (2014)Государственная граница. Фильм 11. Смертельный улов. 01 (2014).mkv
Format                         : Matroska
Format version                 : Version 2
File size                      : 843 MiB
Duration                       : 46mn 57s
Overall bit rate               : 2 509 Kbps
Writing application            : Lavf52.64.2
Writing library                : Lavf52.64.2
Video
ID                             : 1
Format                         : AVC
Format/Info                    : Advanced Video Codec
Format profile                 : Main@L3.0
Format settings, CABAC         : Yes
Format settings, ReFrames      : 4 frames
Format settings, GOP           : M=4, N=24
Codec ID                       : V_MPEG4/ISO/AVC
Duration                       : 46mn 57s
Bit rate                       : 2 203 Kbps
Width                          : 720 pixels
Height                         : 576 pixels
Display aspect ratio           : 4:3
Original display aspect ratio  : 4:3
Frame rate mode                : Constant
Frame rate                     : 25.000 fps
Standard                       : PAL
Color space                    : YUV
Chroma subsampling             : 4:2:0
Bit depth                      : 8 bits
Scan type                      : MBAFF
Scan order                     : Top Field First
Bits/(Pixel*Frame)             : 0.212
Stream size                    : 740 MiB (88%)
Default                        : Yes
Forced                         : No
Color primaries                : BT.601 PAL
Transfer characteristics       : BT.470 System B, BT.470 System G
Matrix coefficients            : BT.601
Color range                    : Limited
Audio
ID                             : 2
Format                         : MPEG Audio
Format version                 : Version 1
Format profile                 : Layer 2
Codec ID                       : A_MPEG/L2
Codec ID/Hint                  : MP2
Duration                       : 46mn 57s
Bit rate mode                  : Constant
Bit rate                       : 256 Kbps
Channel(s)                     : 2 channels
Sampling rate                  : 48.0 KHz
Compression mode               : Lossy
Stream size                    : 86.0 MiB (10%)
Language                       : English
Default                        : Yes
Forced                         : No


Код:
General
Unique ID                      : 167337999511330908622184567826554569715 (0x7DE4205C5BACF25BFACE2666913843F3)
Complete name                  : D:Новая  земля 2Художественные фильмыГосударственная границаГосударственная граница. Фильм 11. Смертельный улов (2014)Государственная граница. Фильм 11. Смертельный улов. 02 (2014).mkv
Format                         : Matroska
Format version                 : Version 2
File size                      : 908 MiB
Duration                       : 50mn 9s
Overall bit rate               : 2 530 Kbps
Writing application            : Lavf52.64.2
Writing library                : Lavf52.64.2
Video
ID                             : 1
Format                         : AVC
Format/Info                    : Advanced Video Codec
Format profile                 : Main@L3.0
Format settings, CABAC         : Yes
Format settings, ReFrames      : 4 frames
Format settings, GOP           : M=4, N=24
Codec ID                       : V_MPEG4/ISO/AVC
Duration                       : 50mn 9s
Bit rate                       : 2 224 Kbps
Width                          : 720 pixels
Height                         : 576 pixels
Display aspect ratio           : 4:3
Original display aspect ratio  : 4:3
Frame rate mode                : Constant
Frame rate                     : 25.000 fps
Standard                       : PAL
Color space                    : YUV
Chroma subsampling             : 4:2:0
Bit depth                      : 8 bits
Scan type                      : MBAFF
Scan order                     : Top Field First
Bits/(Pixel*Frame)             : 0.214
Stream size                    : 798 MiB (88%)
Default                        : Yes
Forced                         : No
Color primaries                : BT.601 PAL
Transfer characteristics       : BT.470 System B, BT.470 System G
Matrix coefficients            : BT.601
Color range                    : Limited
Audio
ID                             : 2
Format                         : MPEG Audio
Format version                 : Version 1
Format profile                 : Layer 2
Codec ID                       : A_MPEG/L2
Codec ID/Hint                  : MP2
Duration                       : 50mn 9s
Bit rate mode                  : Constant
Bit rate                       : 256 Kbps
Channel(s)                     : 2 channels
Sampling rate                  : 48.0 KHz
Compression mode               : Lossy
Stream size                    : 91.8 MiB (10%)
Language                       : English
Default                        : Yes
Forced                         : No




   Похожие торренты   Торрент   Размер 
В этой теме нет новых непрочитанных сообщений. Государственная граница. Фильм 12. Ложная цель (2015) DVB от AND03AND

68 | 1

1.79 ГБ

В этой теме нет новых непрочитанных сообщений. Государственная граница [S02] (2014-2015) SATRip-AVC от Files-x

191 | 27

5.3 ГБ

В этой теме нет новых непрочитанных сообщений. Государственная граница [02x03-04 из 08] (2014-2015) SATRip от Files-x

24 | 0

4.69 ГБ

В этой теме нет новых непрочитанных сообщений. Государственная Граница [1-8] (1980-88) DVDRip by гаврила

95 | 41

17.23 ГБ

В этой теме нет новых непрочитанных сообщений. Государственная граница [01-08 из 08] (1980-1988) DVDRip от -=HD-NET=-

1397 | 375

16.06 ГБ

В этой теме нет новых непрочитанных сообщений. Государственная граница (1980-1988) DVDRip-AVC от Zarraza

47 | 27

19.68 ГБ

В этой теме нет новых непрочитанных сообщений. Государственная граница (1980-1988) DVDRip-AVC от ExKinoRay

103 | 58

23.76 ГБ




Вы не можете начинать темы
Вы не можете отвечать на сообщения
Вы не можете редактировать свои сообщения
Вы не можете удалять свои сообщения
Вы не можете добавлять вложения

Перейти:  
Для Мосгорсуда, Роскомнадзора и рекламодателей: mosgorsud-torrent[собачка]yandex.ru
 Вход
ppkBB3cker v.2 © 2008-2014 @ PPK
[ Time : 0.015s | 13 Queries | GZIP : Off ]
CGP output time : 0.084s | 5 Queries | GZIP : Off

Торрент трекер RUTOR.IN, Не можете зайти на rutor.org? Какой новый адрес рутор? Какое зеркало рутор? Не работает rutor.org и зеркала? Тогда наш торрент специально для вас. Rutor.in неофициальное зеркало rutor. В случае если у Вас заблокирован rutor или вдруг Вы не можете на него зайти, то Вы без труда сможете скачать бесплатно и без рекламы последние новинки кино, игр, сериалов и прочего у нас, на Rutor.in. Не нужно использовать прокси, чтобы зайти на рутор, достаточно воспользоваться нашим ресурсом. Все новые фильмы, игры, сериалы, книги и музыка за 2013 и 2014 годы через торрент бесплатно. Скачивайте фильмы в хорошем качестве, игры для пк, xbox, playstation без регистрации. У нас вы найдете новые Зарубежные сериалы и Русские сериалы 2013, 2014, 2015 годов. Оставайтесь с нами, качайте любимые фильмы, игры, сериалы, книги и музыку.