img image001 image001 image001 image001 image001 image001 image001 image001 image001 image001 image001 image001 image001 image001 image001

Planets Sun Sun Sun
Статистика раздачи
Автор: Nickolas3434 | Размер: 1.09 ГБ | Добавлен: 08 июл 2016
Раздают: 26    Качают: 6
Скачать торрент
Скачать торрент
Описание торрента

СообщениеДобавлено: 08 июл 2016 

Страна: СССР
Производство: Киевская киностудия
Жанр: мюзикл, комедия
Год выпуска: 1955
Продолжительность: 01:26:41
Перевод: Не требуется
Cубтитры: нет
Оригинальная аудиодорожка: русский
Режиссер: Михаил Слуцкий
В ролях:
Екатерина Савинова, Елена Лицканович, Дмитрий Дубов, Алексей Бунин, Евгений Шутов, Нонна Копержинская, Михаил Белоусов, Мария Миронова, Михаил Покотило, Иван Пельтцер, Полина Нятко, Виктор Халатов, Николай Панасьев, Михаил Пуговкин, Евгений Зиновьев...
Полный список актёров
Описание:
В рядовой украинский колхоз приезжает новый музыкальный работник, окончившая консерваторию энергичная молодая девушка. Она повела борьбу с председателем колхоза и бухгалтером, которые считали, что музыкальная самодеятельность для колхозников - нечто совсем необязательное...





Качество видео: TVRip
Формат видео: AVI
Видео: 688x512 (4:3), 25 fps, XviD ~ 1594 kbps avg, 0.181 bit/pixel
Аудио: 48 kHz, Dolby Digital AC3 2.0, 192 kbps
Раздача от:
Общее
Полное имя : V.odin.prekrasniyden.1955.TVRip_[New-team]_by_AVP_Studio.avi
Формат : AVI
Формат/Информация : Audio Video Interleave
Размер файла : 1,09 Гбайт
Продолжительность : 1 ч. 26 м.
Общий поток : 1795 Кбит/сек
Программа кодирования : VirtualDubMod 1.5.10.3 | www.virtualdub-fr.org || (build 2550/release)
Библиотека кодирования : VirtualDubMod build 2550/release
Видео
Идентификатор : 0
Формат : MPEG-4 Visual
Профиль формата : Advanced Simple@L5
Параметр BVOP формата : 1
Параметр QPel формата : Нет
Параметр GMC формата : Без точки перехода
Параметр матрицы формата : Выборочная
Идентификатор кодека : XVID
Идентификатор кодека/Подсказка : XviD
Продолжительность : 1 ч. 26 м.
Битрейт : 1594 Кбит/сек
Ширина : 688 пикселей
Высота : 512 пикселей
Соотношение сторон : 4:3
Частота кадров : 25,000 кадров/сек
Цветовое пространство : YUV
Субдискретизация насыщенности : 4:2:0
Битовая глубина : 8 бит
Тип развёртки : Прогрессивная
Метод сжатия : С потерями
Бит/(Пиксели*Кадры) : 0.181
Размер потока : 988 Мбайт (89%)
Библиотека кодирования : XviD 1.2.1 (UTC 2008-12-04)
Аудио
Идентификатор : 1
Формат : AC-3
Формат/Информация : Audio Coding 3
Расширение режима : CM (complete main)
Параметр Endianness формата : Big
Идентификатор кодека : 2000
Продолжительность : 1 ч. 26 м.
Вид битрейта : Постоянный
Битрейт : 192 Кбит/сек
Каналы : 2 канала
Расположение каналов : Front: L R
Частота : 48,0 КГц
Частота кадров : 31,250 кадров/сек (1536 spf)
Метод сжатия : С потерями
Размер потока : 119 Мбайт (11%)
Выравнивание : Разделение по промежуткам
Продолжительность промежутка : 40 мс. (1,00 видеокадр)
Время предзагрузки промежутка : 500 мс.





   Похожие торренты   Торрент   Размер 
В этой теме нет новых непрочитанных сообщений. В один прекрасный день (1955) TVRip-AVC от New-Team

60 | 5

1.09 ГБ

В этой теме нет новых непрочитанных сообщений. В один прекрасный день (1955) TVRip от New-Team

1 | 3

743.79 МБ

В этой теме нет новых непрочитанных сообщений. В один прекрасный день (1955) TVRip

4 | 13

632.5 МБ

В этой теме нет новых непрочитанных сообщений. Один прекрасный день / A Perfect Day (2006) DVDRip | P

1 | 1

733.23 МБ

В этой теме нет новых непрочитанных сообщений. Один прекрасный день / One Fine Day (1996) DVD5

1 | 2

4.35 ГБ

В этой теме нет новых непрочитанных сообщений. Один прекрасный день / One fine day (1996) HDRip от Scarabey | P

4 | 2

743.37 МБ

В этой теме нет новых непрочитанных сообщений. Один прекрасный день / One Fine Day (1996) BDRip от HQCLUB

12 | 4

2.18 ГБ




Вы не можете начинать темы
Вы не можете отвечать на сообщения
Вы не можете редактировать свои сообщения
Вы не можете удалять свои сообщения
Вы не можете добавлять вложения

Перейти:  
Для Мосгорсуда, Роскомнадзора и рекламодателей: mosgorsud-torrent[собачка]yandex.ru
 Вход
ppkBB3cker v.2 © 2008-2014 @ PPK
[ Time : 0.039s | 15 Queries | GZIP : Off ]

Торрент трекер RUTOR.IN, Не можете зайти на rutor.org? Какой новый адрес рутор? Какое зеркало рутор? Не работает rutor.org и зеркала? Тогда наш торрент специально для вас. Rutor.in неофициальное зеркало rutor. В случае если у Вас заблокирован rutor или вдруг Вы не можете на него зайти, то Вы без труда сможете скачать бесплатно и без рекламы последние новинки кино, игр, сериалов и прочего у нас, на Rutor.in. Не нужно использовать прокси, чтобы зайти на рутор, достаточно воспользоваться нашим ресурсом. Все новые фильмы, игры, сериалы, книги и музыка за 2013 и 2014 годы через торрент бесплатно. Скачивайте фильмы в хорошем качестве, игры для пк, xbox, playstation без регистрации. У нас вы найдете новые Зарубежные сериалы и Русские сериалы 2013, 2014, 2015 годов. Оставайтесь с нами, качайте любимые фильмы, игры, сериалы, книги и музыку.