img image001 image001 image001 image001 image001 image001 image001 image001 image001 image001 image001 image001 image001 image001 image001

Planets Sun Sun Sun
Статистика раздачи
Автор: Nickolas3434 | Размер: 745.58 МБ | Добавлен: 08 июл 2016
Раздают: 40    Качают: 8
Скачать торрент
Скачать торрент
Описание торрента

СообщениеДобавлено: 08 июл 2016 

Страна: СССР
Производство: Киевская студия художественных фильмов
Жанр: драма, биография, история
Год выпуска: 1955
Продолжительность: 01:37:28
Перевод: Не требуется
Cубтитры: нет
Оригинальная аудиодорожка: русский
Режиссер: Абрам Народицкий
В ролях:
Владимир Дружников, Давид Волосов, А. Гируцкая, Олег Жаков, Александр Мгебров, Юрий Кротенко, Виктор Халатов, Эмилия Мильтон, Владимир Таскин, Александр Розанов (III), Дмитрий Милютенко, Юрий Лавров, Георгий Бударов...
Полный список актёров
Описание:
О жизни и деятельности итальянского философа-материалиста эпохи Возрождения Джордано Бруно (1548—1600).





Источник: S-VHS
Качество видео: VHSRip
Формат видео: AVI
Видео: 576x432 (4:3), 25 fps, XviD ~ 932 kbps avg, 0.150 bit/pixel
Аудио: 48 kHz, MP3 2.0, 128 kbps
Раздача от:
Общее
Полное имя : Koster.bessmertiya.1955.VHSRip-745_[New-team]_by_AVP_Studio.avi
Формат : AVI
Формат/Информация : Audio Video Interleave
Размер файла : 746 Мбайт
Продолжительность : 1 ч. 37 м.
Общий поток : 1069 Кбит/сек
Программа кодирования : VirtualDubMod 1.5.10.3 | www.virtualdub-fr.org || (build 2550/release)
Библиотека кодирования : VirtualDubMod build 2550/release
Видео
Идентификатор : 0
Формат : MPEG-4 Visual
Профиль формата : Advanced Simple@L5
Параметр BVOP формата : 1
Параметр QPel формата : Нет
Параметр GMC формата : Без точки перехода
Параметр матрицы формата : Выборочная
Идентификатор кодека : XVID
Идентификатор кодека/Подсказка : XviD
Продолжительность : 1 ч. 37 м.
Битрейт : 932 Кбит/сек
Ширина : 576 пикселей
Высота : 432 пикселя
Соотношение сторон : 4:3
Частота кадров : 25,000 кадров/сек
Цветовое пространство : YUV
Субдискретизация насыщенности : 4:2:0
Битовая глубина : 8 бит
Тип развёртки : Прогрессивная
Метод сжатия : С потерями
Бит/(Пиксели*Кадры) : 0.150
Размер потока : 650 Мбайт (87%)
Библиотека кодирования : XviD 1.2.1 (UTC 2008-12-04)
Аудио
Идентификатор : 1
Формат : MPEG Audio
Версия формата : Version 1
Профиль формата : Layer 3
Идентификатор кодека : 55
Идентификатор кодека/Подсказка : MP3
Продолжительность : 1 ч. 37 м.
Вид битрейта : Постоянный
Битрейт : 128 Кбит/сек
Каналы : 2 канала
Частота : 48,0 КГц
Метод сжатия : С потерями
Размер потока : 89,2 Мбайт (12%)
Выравнивание : Соединение по промежуткам
Продолжительность промежутка : 40 мс. (1,00 видеокадр)
Время предзагрузки промежутка : 504 мс.
Библиотека кодирования : LAME3.99r
Настройки программы : -m s -V 4 -q 2 -lowpass 17 -b 128





   Похожие торренты   Торрент   Размер 
В этой теме нет новых непрочитанных сообщений. Костёр бессмертия (1955) VHSRip- от New-Team

18 | 3

1.46 ГБ

В этой теме нет новых непрочитанных сообщений. Костёр бессмертия (1955) VHSRip-AVC от New-Team

37 | 6

1.46 ГБ

В этой теме нет новых непрочитанных сообщений. Дым в лесу (1955) VHSRip-AVC от New-Team

59 | 5

744.6 МБ

В этой теме нет новых непрочитанных сообщений. Дым в лесу (1955) VHSRip от New-Team

16 | 6

744.9 МБ

В этой теме нет новых непрочитанных сообщений. К новому берегу (1955) VHSRip от New-Team

16 | 3

745.57 МБ

В этой теме нет новых непрочитанных сообщений. К новому берегу (1955) VHSRip-AVC от New-Team

14 | 3

1.46 ГБ

В этой теме нет новых непрочитанных сообщений. Призраки покидают вершины (1955) VHSRip- от New-Team

5 | 4

1.09 ГБ




Вы не можете начинать темы
Вы не можете отвечать на сообщения
Вы не можете редактировать свои сообщения
Вы не можете удалять свои сообщения
Вы не можете добавлять вложения

Перейти:  
Для Мосгорсуда, Роскомнадзора и рекламодателей: mosgorsud-torrent[собачка]yandex.ru
 Вход
ppkBB3cker v.2 © 2008-2014 @ PPK
[ Time : 0.036s | 15 Queries | GZIP : Off ]

Торрент трекер RUTOR.IN, Не можете зайти на rutor.org? Какой новый адрес рутор? Какое зеркало рутор? Не работает rutor.org и зеркала? Тогда наш торрент специально для вас. Rutor.in неофициальное зеркало rutor. В случае если у Вас заблокирован rutor или вдруг Вы не можете на него зайти, то Вы без труда сможете скачать бесплатно и без рекламы последние новинки кино, игр, сериалов и прочего у нас, на Rutor.in. Не нужно использовать прокси, чтобы зайти на рутор, достаточно воспользоваться нашим ресурсом. Все новые фильмы, игры, сериалы, книги и музыка за 2013 и 2014 годы через торрент бесплатно. Скачивайте фильмы в хорошем качестве, игры для пк, xbox, playstation без регистрации. У нас вы найдете новые Зарубежные сериалы и Русские сериалы 2013, 2014, 2015 годов. Оставайтесь с нами, качайте любимые фильмы, игры, сериалы, книги и музыку.