img image001 image001 image001 image001 image001 image001 image001 image001 image001 image001 image001 image001 image001 image001 image001

Planets Sun Sun Sun
Статистика раздачи
Автор: PriZraK | Размер: 1.45 ГБ | Добавлен: 12 июл 2016
Раздают: 15    Качают: 8
Скачать торрент
Скачать торрент
Описание торрента

СообщениеДобавлено: 12 июл 2016 

Страна: СССР
Производство: Мосфильм
Жанр: драма, мелодрама, военный
Год выпуска: 1955
Продолжительность: 01:47:44
Перевод: Не требуется
Cубтитры: нет
Оригинальная аудиодорожка: русский
Режиссер: Михаил Калатозов
В ролях:
Всеволод Санаев, Сергей Ромоданов, Николай Анненков, Олег Ефремов, Изольда Извицкая, Эдуард Бредун, Алексей Кожевников, Нина Дорошина, Эльза Леждей, Анатолий Кириллов, Валентина Кузнецова (II), Вячеслав Воронин, Хорен Абрамян, Борис Беляков, Виктор Новосельский, Валентин Печников, Сергей Швардыгулов...
Полный список актёров
Описание:
В один из степных районов Казахстана прибывает по комсомольским путевкам отряд молодежи. Целинники - энтузиасты приехали осваивать казахстанскую степь. Суровые морозы и потоки весенней грязи, изнуряющая работа не по специальности усложняют и без того трудную жизнь прибывших, но не могут помешать молодым ребятам радоваться жизни.
На фоне этих трудностей развивается трогательный роман секретаря комсомольской организации и трактористки Анны...





Источник: DVD9 R5
Качество видео: DVDRip-AVC
Формат видео: MKV
Видео: 704->738x554 (4:3), 25 fps, H264 ~ 1746 kbps avg, 0.179 bit/pixel
Аудио: 48 kHz, Dolby Digital AC3 2.0, 192 kbps
Раздача от:
Общее
Полное имя : Perviy.eshelon.1955.DVDRip-AVC_[New-team]_by_AVP_Studio.mkv
Формат : Matroska
Версия формата : Version 4 / Version 2
Размер файла : 1,45 Гбайт
Продолжительность : 1 ч. 47 м.
Общий поток : 1940 Кбит/сек
Дата кодирования : UTC 2016-07-07 16:31:01
Программа кодирования : mkvmerge v9.2.0 ('Photograph') 64bit
Библиотека кодирования : libebml v1.3.3 + libmatroska v1.4.4
Видео
Идентификатор : 1
Формат : AVC
Формат/Информация : Advanced Video Codec
Профиль формата : High@L4.1
Параметр CABAC формата : Да
Параметр ReFrames формата : 10 кадров
Идентификатор кодека : V_MPEG4/ISO/AVC
Продолжительность : 1 ч. 47 м.
Битрейт : 1746 Кбит/сек
Ширина : 704 пикселя
Высота : 554 пикселя
Соотношение сторон : 4:3
Режим частоты кадров : Постоянный
Частота кадров : 25,000 кадров/сек
Цветовое пространство : YUV
Субдискретизация насыщенности : 4:2:0
Битовая глубина : 8 бит
Тип развёртки : Прогрессивная
Бит/(Пиксели*Кадры) : 0.179
Размер потока : 1,31 Гбайт (90%)
Default : Да
Forced : Нет
Аудио
Идентификатор : 2
Формат : AC-3
Формат/Информация : Audio Coding 3
Расширение режима : CM (complete main)
Параметр Endianness формата : Big
Идентификатор кодека : A_AC3
Продолжительность : 1 ч. 47 м.
Вид битрейта : Постоянный
Битрейт : 192 Кбит/сек
Каналы : 2 канала
Расположение каналов : Front: L R
Частота : 48,0 КГц
Частота кадров : 31,250 кадров/сек (1536 spf)
Метод сжатия : С потерями
Задержка видео : 16 мс.
Размер потока : 147 Мбайт (10%)
Default : Да
Forced : Нет





   Похожие торренты   Торрент   Размер 
В этой теме нет новых непрочитанных сообщений. Первый эшелон (1955) DVDRip от New-Team

23 | 1

1.45 ГБ

В этой теме нет новых непрочитанных сообщений. Первый эшелон (1955) DVDRip от New-Team

20 | 2

742.08 МБ

В этой теме нет новых непрочитанных сообщений. Первый эшелон (1955) DVDRip от Pshichko66

25 | 31

1.46 ГБ

В этой теме нет новых непрочитанных сообщений. Эшелон [01-08 из 08] (2005) DVD9 от New-Team | Лицензия

30 | 26

6.97 ГБ

В этой теме нет новых непрочитанных сообщений. Отелло (1955) DVDRip-AVC от New-Team

45 | 1

1.46 ГБ

В этой теме нет новых непрочитанных сообщений. Попрыгунья (1955) DVDRip-AVC от New-Team

13 | 1

1.09 ГБ

В этой теме нет новых непрочитанных сообщений. Попрыгунья (1955) DVDRip от New-Team

4 | 5

745.59 МБ




Вы не можете начинать темы
Вы не можете отвечать на сообщения
Вы не можете редактировать свои сообщения
Вы не можете удалять свои сообщения
Вы не можете добавлять вложения

Перейти:  
Для Мосгорсуда, Роскомнадзора и рекламодателей: mosgorsud-torrent[собачка]yandex.ru
 Вход
ppkBB3cker v.2 © 2008-2014 @ PPK
[ Time : 0.041s | 15 Queries | GZIP : Off ]

Торрент трекер RUTOR.IN, Не можете зайти на rutor.org? Какой новый адрес рутор? Какое зеркало рутор? Не работает rutor.org и зеркала? Тогда наш торрент специально для вас. Rutor.in неофициальное зеркало rutor. В случае если у Вас заблокирован rutor или вдруг Вы не можете на него зайти, то Вы без труда сможете скачать бесплатно и без рекламы последние новинки кино, игр, сериалов и прочего у нас, на Rutor.in. Не нужно использовать прокси, чтобы зайти на рутор, достаточно воспользоваться нашим ресурсом. Все новые фильмы, игры, сериалы, книги и музыка за 2013 и 2014 годы через торрент бесплатно. Скачивайте фильмы в хорошем качестве, игры для пк, xbox, playstation без регистрации. У нас вы найдете новые Зарубежные сериалы и Русские сериалы 2013, 2014, 2015 годов. Оставайтесь с нами, качайте любимые фильмы, игры, сериалы, книги и музыку.