img image001 image001 image001 image001 image001 image001 image001 image001 image001 image001 image001 image001 image001 image001 image001

Planets Sun Sun Sun
Статистика раздачи
Автор: PriZraK | Размер: 1.46 ГБ | Добавлен: 12 июл 2016
Раздают: 1591    Качают: 37
Скачать торрент
Скачать торрент
Описание торрента

СообщениеДобавлено: 12 июл 2016 


Информация о фильме
Название: Назад в СССР
Год выхода: 2010
Жанр: Комедия, драма, мелодрама
Режиссёр: Валерий Рожнов
В ролях: Марат Башаров, Карина Андоленко, Александр Андриенко, Андрей Кочинов, Евгений Миллер, Сергей Баринов, Дмитрий Грачев, Ольга Полякова, Олег Чернигов
О фильме: Антон — преуспевающий бизнесмен, переживающий кризис среднего возраста. Он не чувствует себя счастливым, имея все, что он мог бы пожелать. Он много выпивает, и по совету близкого друга, начинает посещать общество анонимных алкоголиков. Там он знакомится с человеком, называющим себя Сталкером, который предлагает приключение и ощущения, которых он никогда не испытывал. Антон соглашается и очень скоро понимает, что оказался в 1975 году...

Страна: Россия
Студия: Кинокомпания «Магнум»
Продолжительность: 03:12:22
Перевод: Не требуется (оригинальный)
Файл
Формат: avi
Качество: DVDRip (DVD9)
Видео: XviD, 624х352, 25fps, 950kbps
Аудио: MPEG Layer 3, 2ch, 48000Hz, 128kbps

General
Complete name : Nazad.V.SSSR.2010.O.DVDRip.1400.CurHaJI.avi
Format : AVI
Format/Info : Audio Video Interleave
File size : 1.46 GiB
Duration : 3h 12mn
Overall bit rate : 1 087 Kbps
Movie name : Nazad.V.SSSR.2010.O.DVDRip.1400.CurHaJI
Writing application : VirtualDubMod 1.5.10.3 | www.virtualdub-fr.org || (build 2550/release)
Writing library : VirtualDub build 35491/release
Video
ID : 0
Format : MPEG-4 Visual
Format profile : Advanced Simple@L5
Format settings, BVOP : 2
Format settings, QPel : No
Format settings, GMC : No warppoints
Format settings, Matrix : Custom
Codec ID : XVID
Codec ID/Hint : XviD
Duration : 3h 12mn
Bit rate : 950 Kbps
Width : 624 pixels
Height : 352 pixels
Display aspect ratio : 16:9
Frame rate : 25.000 fps
Color space : YUV
Chroma subsampling : 4:2:0
Bit depth : 8 bits
Scan type : Progressive
Compression mode : Lossy
Bits/(Pixel*Frame) : 0.173
Stream size : 1.28 GiB (87%)
Writing library : XviD 73
Audio
ID : 1
Format : MPEG Audio
Format version : Version 1
Format profile : Layer 3
Codec ID : 55
Codec ID/Hint : MP3
Duration : 3h 12mn
Bit rate mode : Constant
Bit rate : 128 Kbps
Channel(s) : 2 channels
Sampling rate : 48.0 KHz
Compression mode : Lossy
Stream size : 176 MiB (12%)
Alignment : Aligned on interleaves
Interleave, duration : 40 ms (1.00 video frame)
Interleave, preload duration : 504 ms
Writing library : LAME3.99r
Encoding settings : -m s -V 4 -q 2 -lowpass 17 -b 128


Релиз от:



   Похожие торренты   Торрент   Размер 
В этой теме нет новых непрочитанных сообщений. Назад в СССР / Рожденный в СССР [01-04 из 04] (2010) SATRip от Кинозал.ТВ

56 | 5

1.77 ГБ

В этой теме нет новых непрочитанных сообщений. Назад в СССР [01-04 из 04] (2010) DVDRip

224 | 22

2.74 ГБ

В этой теме нет новых непрочитанных сообщений. Назад в СССР [01-04 из 04] (2010) DVDRip-AVC

25 | 4

1.93 ГБ

В этой теме нет новых непрочитанных сообщений. Назад в СССР [01-04 из 04] (2010) DVDRip от MediaClub | КПК

205 | 41

875.19 МБ

В этой теме нет новых непрочитанных сообщений. Сборная Союза - СССР Большой [Kонцерт] (2010) DVDRip от NovaLan

14 | 4

1.37 ГБ

В этой теме нет новых непрочитанных сообщений. Сделано в СССР - В СССР секса нет! (2016) IPTVRip

294 | 11

314.09 МБ

В этой теме нет новых непрочитанных сообщений. Спето в СССР. Госпожа Удача [эфир от 09.10.2010] (2010) IPTVRip от CinemaStreet

0 | 2

490 МБ




Вы не можете начинать темы
Вы не можете отвечать на сообщения
Вы не можете редактировать свои сообщения
Вы не можете удалять свои сообщения
Вы не можете добавлять вложения

Перейти:  
Для Мосгорсуда, Роскомнадзора и рекламодателей: mosgorsud-torrent[собачка]yandex.ru
 Вход
ppkBB3cker v.2 © 2008-2014 @ PPK
[ Time : 0.065s | 13 Queries | GZIP : Off ]
CGP output time : 0.025s | 5 Queries | GZIP : Off

Торрент трекер RUTOR.IN, Не можете зайти на rutor.org? Какой новый адрес рутор? Какое зеркало рутор? Не работает rutor.org и зеркала? Тогда наш торрент специально для вас. Rutor.in неофициальное зеркало rutor. В случае если у Вас заблокирован rutor или вдруг Вы не можете на него зайти, то Вы без труда сможете скачать бесплатно и без рекламы последние новинки кино, игр, сериалов и прочего у нас, на Rutor.in. Не нужно использовать прокси, чтобы зайти на рутор, достаточно воспользоваться нашим ресурсом. Все новые фильмы, игры, сериалы, книги и музыка за 2013 и 2014 годы через торрент бесплатно. Скачивайте фильмы в хорошем качестве, игры для пк, xbox, playstation без регистрации. У нас вы найдете новые Зарубежные сериалы и Русские сериалы 2013, 2014, 2015 годов. Оставайтесь с нами, качайте любимые фильмы, игры, сериалы, книги и музыку.