img image001 image001 image001 image001 image001 image001 image001 image001 image001 image001 image001 image001 image001 image001 image001

Planets Sun Sun Sun
Статистика раздачи
Автор: PriZraK | Размер: 1.09 ГБ | Добавлен: 12 июл 2016
Раздают: 27    Качают: 8
Скачать торрент
Скачать торрент
Описание торрента

СообщениеДобавлено: 12 июл 2016 

Страна: СССР
Производство: Мосфильм, Ташкентская киностудия
Жанр: приключения, военный
Год выпуска: 1955
Продолжительность: 01:32:02
Перевод: Не требуется
Cубтитры: нет
Оригинальная аудиодорожка: русский
Режиссер: Владимир Басов, Латиф Файзиев
В ролях:
Евгений Самойлов, Владимир Краснопольский (II), К. Алимджанов, Санат Диванов, Неля Атауллаева, Георгий Юматов, Роза Макагонова, Раззак Хамраев, Абдусалом Рахимов, Мухаммед Черкезов, Григорий Михайлов, Н. Ишмухамедов, Евгений Тетерин, Михаил Пуговкин, Аббас Бакиров, Владимир Балашов, Николай Гарин, Андрей Файт, Кудрат Ходжаев, Обид Джалилов, Сагди Табибуллаев, Шукур Бурханов, Юнона Белоручева, Сайфи Алимов, Саат Талипов, Т. Исламов, Артавазд Кефчиян, Эммануил Геллер, Владимир Горелов, Нозукмо Шомансурова, Рахим Пирмухамедов...
Полный список актёров
Описание:
1920 год. Западные державы пытаются использовать Бухарское ханство — бывший протекторат царской России — для борьбы с Советской властью. Прибывшие в Ташкент М.В.Фрунзе и В.В.Куйбышев организуют массы на борьбу с контрреволюционерами и агентами иностранных разведок. Для подпольной работы посылаются преданные делу революции люди, такие, как молодой узбек Шерали...





Источник: DVB
Качество видео: SATRip
Формат видео: AVI
Видео: 672x496 (4:3), 25 fps, XviD ~ 1494 kbps avg, 0.179 bit/pixel
Аудио: 48 kHz, Dolby Digital AC3 2.0, 192 kbps
Раздача от:
Общее
Полное имя : Krushenie.yemirata.1955.SATRip_[New-team]_by_AVP_Studio.avi
Формат : AVI
Формат/Информация : Audio Video Interleave
Размер файла : 1,09 Гбайт
Продолжительность : 1 ч. 32 м.
Общий поток : 1695 Кбит/сек
Программа кодирования : VirtualDubMod 1.5.10.3 | www.virtualdub-fr.org || (build 2550/release)
Библиотека кодирования : VirtualDubMod build 2550/release
Видео
Идентификатор : 0
Формат : MPEG-4 Visual
Профиль формата : Advanced Simple@L5
Параметр BVOP формата : 1
Параметр QPel формата : Нет
Параметр GMC формата : Без точки перехода
Параметр матрицы формата : Выборочная
Идентификатор кодека : XVID
Идентификатор кодека/Подсказка : XviD
Продолжительность : 1 ч. 32 м.
Битрейт : 1494 Кбит/сек
Ширина : 672 пикселя
Высота : 496 пикселей
Соотношение сторон : 4:3
Частота кадров : 25,000 кадров/сек
Цветовое пространство : YUV
Субдискретизация насыщенности : 4:2:0
Битовая глубина : 8 бит
Тип развёртки : Прогрессивная
Метод сжатия : С потерями
Бит/(Пиксели*Кадры) : 0.179
Размер потока : 983 Мбайт (88%)
Библиотека кодирования : XviD 1.2.1 (UTC 2008-12-04)
Аудио
Идентификатор : 1
Формат : AC-3
Формат/Информация : Audio Coding 3
Расширение режима : CM (complete main)
Параметр Endianness формата : Big
Идентификатор кодека : 2000
Продолжительность : 1 ч. 32 м.
Вид битрейта : Постоянный
Битрейт : 192 Кбит/сек
Каналы : 2 канала
Расположение каналов : Front: L R
Частота : 48,0 КГц
Частота кадров : 31,250 кадров/сек (1536 spf)
Метод сжатия : С потерями
Размер потока : 126 Мбайт (11%)
Выравнивание : Разделение по промежуткам
Продолжительность промежутка : 40 мс. (1,00 видеокадр)
Время предзагрузки промежутка : 500 мс





   Похожие торренты   Торрент   Размер 
В этой теме нет новых непрочитанных сообщений. Крушение эмирата (1955) SATRip от New-Team

12 | 3

745.43 МБ

В этой теме нет новых непрочитанных сообщений. Крушение эмирата (1955) SATRip-AVC от New-Team

84 | 3

1.09 ГБ

В этой теме нет новых непрочитанных сообщений. Крушение эмирата (1955) SATRip

93 | 22

1.47 ГБ

В этой теме нет новых непрочитанных сообщений. Сын (1955) SATRip от New-Team

10 | 4

1.09 ГБ

В этой теме нет новых непрочитанных сообщений. Сын (1955) SATRip от New-Team

3 | 4

744.6 МБ

В этой теме нет новых непрочитанных сообщений. Сын (1955) SATRip-AVC от New-Team

16 | 3

1.09 ГБ

В этой теме нет новых непрочитанных сообщений. Вольница (1955) SATRip-AVC от New-Team

67 | 6

1.46 ГБ




Вы не можете начинать темы
Вы не можете отвечать на сообщения
Вы не можете редактировать свои сообщения
Вы не можете удалять свои сообщения
Вы не можете добавлять вложения

Перейти:  
Для Мосгорсуда, Роскомнадзора и рекламодателей: mosgorsud-torrent[собачка]yandex.ru
 Вход
ppkBB3cker v.2 © 2008-2014 @ PPK
[ Time : 0.026s | 15 Queries | GZIP : Off ]

Торрент трекер RUTOR.IN, Не можете зайти на rutor.org? Какой новый адрес рутор? Какое зеркало рутор? Не работает rutor.org и зеркала? Тогда наш торрент специально для вас. Rutor.in неофициальное зеркало rutor. В случае если у Вас заблокирован rutor или вдруг Вы не можете на него зайти, то Вы без труда сможете скачать бесплатно и без рекламы последние новинки кино, игр, сериалов и прочего у нас, на Rutor.in. Не нужно использовать прокси, чтобы зайти на рутор, достаточно воспользоваться нашим ресурсом. Все новые фильмы, игры, сериалы, книги и музыка за 2013 и 2014 годы через торрент бесплатно. Скачивайте фильмы в хорошем качестве, игры для пк, xbox, playstation без регистрации. У нас вы найдете новые Зарубежные сериалы и Русские сериалы 2013, 2014, 2015 годов. Оставайтесь с нами, качайте любимые фильмы, игры, сериалы, книги и музыку.