img image001 image001 image001 image001 image001 image001 image001 image001 image001 image001 image001 image001 image001 image001 image001

Planets Sun Sun Sun
Статистика раздачи
Автор: PriZraK | Размер: 1.09 ГБ | Добавлен: 12 июл 2016
Раздают: 26    Качают: 1
Скачать торрент
Скачать торрент
Описание торрента

СообщениеДобавлено: 12 июл 2016 

Страна: СССР
Производство: Мосфильм, Ташкентская киностудия
Жанр: приключения, военный
Год выпуска: 1955
Продолжительность: 01:32:02
Перевод: Не требуется
Cубтитры: нет
Оригинальная аудиодорожка: русский
Режиссер: Владимир Басов, Латиф Файзиев
В ролях:
Евгений Самойлов, Владимир Краснопольский (II), К. Алимджанов, Санат Диванов, Неля Атауллаева, Георгий Юматов, Роза Макагонова, Раззак Хамраев, Абдусалом Рахимов, Мухаммед Черкезов, Григорий Михайлов, Н. Ишмухамедов, Евгений Тетерин, Михаил Пуговкин, Аббас Бакиров, Владимир Балашов, Николай Гарин, Андрей Файт, Кудрат Ходжаев, Обид Джалилов, Сагди Табибуллаев, Шукур Бурханов, Юнона Белоручева, Сайфи Алимов, Саат Талипов, Т. Исламов, Артавазд Кефчиян, Эммануил Геллер, Владимир Горелов, Нозукмо Шомансурова, Рахим Пирмухамедов...
Полный список актёров
Описание:
1920 год. Западные державы пытаются использовать Бухарское ханство — бывший протекторат царской России — для борьбы с Советской властью. Прибывшие в Ташкент М.В.Фрунзе и В.В.Куйбышев организуют массы на борьбу с контрреволюционерами и агентами иностранных разведок. Для подпольной работы посылаются преданные делу революции люди, такие, как молодой узбек Шерали...





Источник: DVB
Качество видео: SATRip-AVC
Формат видео: MKV
Видео: 672->742x556 (4:3), 25 fps, H264 ~ 1500 kbps avg, 0.161 bit/pixel
Аудио: 48 kHz, Dolby Digital AC3 2.0, 192 kbps
Раздача от:
Общее
Полное имя : Krushenie.yemirata.1955.SATRip-AVC_[New-team]_by_AVP_Studio.mkv
Формат : Matroska
Версия формата : Version 2
Размер файла : 1,09 Гбайт
Продолжительность : 1 ч. 32 м.
Общий поток : 1694 Кбит/сек
Дата кодирования : UTC 2016-07-07 20:42:13
Программа кодирования : mkvmerge v6.1.0 ('Old Devil') built on Mar 4 2013 09:10:42
Библиотека кодирования : libebml v1.3.0 + libmatroska v1.4.0
Видео
Идентификатор : 1
Формат : AVC
Формат/Информация : Advanced Video Codec
Профиль формата : High@L4.1
Параметр CABAC формата : Да
Параметр ReFrames формата : 10 кадров
Идентификатор кодека : V_MPEG4/ISO/AVC
Продолжительность : 1 ч. 32 м.
Битрейт : 1500 Кбит/сек
Ширина : 672 пикселя
Высота : 556 пикселей
Соотношение сторон : 4:3
Режим частоты кадров : Постоянный
Частота кадров : 25,000 кадров/сек
Цветовое пространство : YUV
Субдискретизация насыщенности : 4:2:0
Битовая глубина : 8 бит
Тип развёртки : Прогрессивная
Бит/(Пиксели*Кадры) : 0.161
Размер потока : 966 Мбайт (87%)
Библиотека кодирования : x264 core 148 r2597 e86f3a1
Настройки программы : cabac=1 / ref=10 / deblock=1:-2:-1 / analyse=0x3:0x113 / me=umh / subme=10 / psy=1 / psy_rd=1.00:0.00 / mixed_ref=1 / me_range=32 / chroma_me=1 / trellis=2 / 8x8dct=1 / cqm=0 / deadzone=21,11 / fast_pskip=1 / chroma_qp_offset=-2 / threads=6 / lookahead_threads=1 / sliced_threads=0 / nr=0 / decimate=0 / interlaced=0 / bluray_compat=0 / constrained_intra=0 / bframes=8 / b_pyramid=2 / b_adapt=2 / b_bias=0 / direct=3 / weightb=1 / open_gop=0 / weightp=2 / keyint=250 / keyint_min=25 / scenecut=40 / intra_refresh=0 / rc=2pass / mbtree=0 / bitrate=1500 / ratetol=1.0 / qcomp=0.60 / qpmin=0 / qpmax=69 / qpstep=4 / cplxblur=20.0 / qblur=0.5 / ip_ratio=1.40 / pb_ratio=1.30 / aq=1:1.00
Default : Да
Forced : Нет
Аудио
Идентификатор : 2
Формат : AC-3
Формат/Информация : Audio Coding 3
Расширение режима : CM (complete main)
Параметр Endianness формата : Big
Идентификатор кодека : A_AC3
Продолжительность : 1 ч. 32 м.
Вид битрейта : Постоянный
Битрейт : 192 Кбит/сек
Каналы : 2 канала
Расположение каналов : Front: L R
Частота : 48,0 КГц
Частота кадров : 31,250 кадров/сек (1536 spf)
Метод сжатия : С потерями
Размер потока : 126 Мбайт (11%)
Default : Да
Forced : Нет





   Похожие торренты   Торрент   Размер 
В этой теме нет новых непрочитанных сообщений. Крушение эмирата (1955) SATRip от New-Team

12 | 5

1.09 ГБ

В этой теме нет новых непрочитанных сообщений. Крушение эмирата (1955) SATRip от New-Team

14 | 1

745.43 МБ

В этой теме нет новых непрочитанных сообщений. Крушение эмирата (1955) SATRip

93 | 22

1.47 ГБ

В этой теме нет новых непрочитанных сообщений. Сын (1955) SATRip от New-Team

4 | 2

1.09 ГБ

В этой теме нет новых непрочитанных сообщений. Сын (1955) SATRip от New-Team

4 | 2

744.6 МБ

В этой теме нет новых непрочитанных сообщений. Сын (1955) SATRip-AVC от New-Team

15 | 1

1.09 ГБ

В этой теме нет новых непрочитанных сообщений. Вольница (1955) SATRip от New-Team

13 | 1

1.46 ГБ




Вы не можете начинать темы
Вы не можете отвечать на сообщения
Вы не можете редактировать свои сообщения
Вы не можете удалять свои сообщения
Вы не можете добавлять вложения

Перейти:  
Для Мосгорсуда, Роскомнадзора и рекламодателей: mosgorsud-torrent[собачка]yandex.ru
 Вход
ppkBB3cker v.2 © 2008-2014 @ PPK
[ Time : 0.035s | 18 Queries | GZIP : Off ]

cron