img image001 image001 image001 image001 image001 image001 image001 image001 image001 image001 image001 image001 image001 image001 image001

Planets Sun Sun Sun
Статистика раздачи
Автор: PriZraK | Размер: 2.18 ГБ | Добавлен: 12 июл 2016
Раздают: 73    Качают: 10
Скачать торрент
Скачать торрент
Описание торрента

СообщениеДобавлено: 12 июл 2016 

Страна: Россия
Производство: Берг Саунд
Жанр: боевик
Год выпуска: 2012
Продолжительность: 02:57:14
Перевод: Не требуется
Cубтитры: нет
Оригинальная аудиодорожка: русский
Режиссер: Арман Геворгян
В ролях:
Александр Песков, Евгений Березовский, Юрий Кормушин, Виктор Фалалеев, Абел Абелян, Виген Степанян, Сергей Апрельский, Фрида Йорк, Аршо Арутюнян, Сергей Холмогоров...
Полный список актёров
Описание:
Андрей Макаров - сотрудник спецслужб. Он входит в состав группы, выслеживающей террористов с востока. Андрей плохо слышит после произошедшего с ним в детстве несчастного случая, но отлично читает по губам и в совершенстве владеет арабским. Выполняя очередное задание в одном из ближневосточных государств, он узнаёт, что боевики готовят серию терактов на территории России с использованием девушек-смертниц. Главарь террористов Абу Джалид – идейный полевой командир.





Источник: DVD9 R5
Качество видео: DVDRip
Формат видео: AVI
Видео: 720x400 (16:9), 25 fps, XviD ~ 1559 kbps avg, 0.217 bit/pixel
Аудио: 48 kHz, Dolby Digital AC3 2.0, 192 kbps
Раздача от:
Общее
Полное имя : Strelok.2012.DVDRip_[New-team]_by_AVP_Studio.avi
Формат : AVI
Формат/Информация : Audio Video Interleave
Профиль формата : OpenDML
Размер файла : 2,18 Гбайт
Продолжительность : 2 ч. 57 м.
Общий поток : 1763 Кбит/сек
Программа кодирования : VirtualDubMod 1.5.10.3 | www.virtualdub-fr.org || (build 2550/release)
Библиотека кодирования : VirtualDubMod build 2550/release
Видео
Идентификатор : 0
Формат : MPEG-4 Visual
Профиль формата : Advanced Simple@L5
Параметр BVOP формата : 1
Параметр QPel формата : Нет
Параметр GMC формата : Без точки перехода
Параметр матрицы формата : Выборочная
Идентификатор кодека : XVID
Идентификатор кодека/Подсказка : XviD
Продолжительность : 2 ч. 57 м.
Битрейт : 1559 Кбит/сек
Ширина : 720 пикселей
Высота : 400 пикселей
Соотношение сторон : 16:9
Частота кадров : 25,000 кадров/сек
Цветовое пространство : YUV
Субдискретизация насыщенности : 4:2:0
Битовая глубина : 8 бит
Тип развёртки : Прогрессивная
Метод сжатия : С потерями
Бит/(Пиксели*Кадры) : 0.217
Размер потока : 1,93 Гбайт (88%)
Библиотека кодирования : XviD 1.2.1 (UTC 2008-12-04)
Аудио
Идентификатор : 1
Формат : AC-3
Формат/Информация : Audio Coding 3
Расширение режима : CM (complete main)
Параметр Endianness формата : Big
Идентификатор кодека : 2000
Продолжительность : 2 ч. 57 м.
Вид битрейта : Постоянный
Битрейт : 192 Кбит/сек
Каналы : 2 канала
Расположение каналов : Front: L R
Частота : 48,0 КГц
Частота кадров : 31,250 кадров/сек (1536 spf)
Метод сжатия : С потерями
Размер потока : 243 Мбайт (11%)
Выравнивание : Разделение по промежуткам
Продолжительность промежутка : 40 мс. (1,00 видеокадр)
Время предзагрузки промежутка : 500 мс





   Похожие торренты   Торрент   Размер 
В этой теме нет новых непрочитанных сообщений. Стрелок (2012) DVDRip-AVC от New-Team

74 | 9

2.18 ГБ

В этой теме нет новых непрочитанных сообщений. Стрелок (2012) DVDRip от New-Team

344 | 19

1.46 ГБ

В этой теме нет новых непрочитанных сообщений. Стрелок 2 (2014) DVDRip-AVC от New-Team

208 | 16

2.18 ГБ

В этой теме нет новых непрочитанных сообщений. Стрелок 2 (2014) DVDRip от New-Team

520 | 33

1.46 ГБ

В этой теме нет новых непрочитанных сообщений. Ворошиловский стрелок (1999) DVDRip от New-Team

47 | 16

745.18 МБ

В этой теме нет новых непрочитанных сообщений. Ворошиловский стрелок (1999) DVDRip от New-Team

155 | 16

1.46 ГБ

В этой теме нет новых непрочитанных сообщений. Ворошиловский стрелок (1999) DVDRip-AVC от New-Team

248 | 29

1.46 ГБ




Вы не можете начинать темы
Вы не можете отвечать на сообщения
Вы не можете редактировать свои сообщения
Вы не можете удалять свои сообщения
Вы не можете добавлять вложения

Перейти:  
Для Мосгорсуда, Роскомнадзора и рекламодателей: mosgorsud-torrent[собачка]yandex.ru
 Вход
ppkBB3cker v.2 © 2008-2014 @ PPK
[ Time : 0.553s | 16 Queries | GZIP : Off ]

Торрент трекер RUTOR.IN, Не можете зайти на rutor.org? Какой новый адрес рутор? Какое зеркало рутор? Не работает rutor.org и зеркала? Тогда наш торрент специально для вас. Rutor.in неофициальное зеркало rutor. В случае если у Вас заблокирован rutor или вдруг Вы не можете на него зайти, то Вы без труда сможете скачать бесплатно и без рекламы последние новинки кино, игр, сериалов и прочего у нас, на Rutor.in. Не нужно использовать прокси, чтобы зайти на рутор, достаточно воспользоваться нашим ресурсом. Все новые фильмы, игры, сериалы, книги и музыка за 2013 и 2014 годы через торрент бесплатно. Скачивайте фильмы в хорошем качестве, игры для пк, xbox, playstation без регистрации. У нас вы найдете новые Зарубежные сериалы и Русские сериалы 2013, 2014, 2015 годов. Оставайтесь с нами, качайте любимые фильмы, игры, сериалы, книги и музыку.