img image001 image001 image001 image001 image001 image001 image001 image001 image001 image001 image001 image001 image001 image001 image001

Planets Sun Sun Sun
Статистика раздачи
Автор: PriZraK | Размер: 2.18 ГБ | Добавлен: 12 июл 2016
Раздают: 74    Качают: 9
Скачать торрент
Скачать торрент
Описание торрента

СообщениеДобавлено: 12 июл 2016 

Страна: Россия
Производство: Берг Саунд
Жанр: боевик
Год выпуска: 2012
Продолжительность: 02:57:14
Перевод: Не требуется
Cубтитры: нет
Оригинальная аудиодорожка: русский
Режиссер: Арман Геворгян
В ролях:
Александр Песков, Евгений Березовский, Юрий Кормушин, Виктор Фалалеев, Абел Абелян, Виген Степанян, Сергей Апрельский, Фрида Йорк, Аршо Арутюнян, Сергей Холмогоров...
Полный список актёров
Описание:
Андрей Макаров - сотрудник спецслужб. Он входит в состав группы, выслеживающей террористов с востока. Андрей плохо слышит после произошедшего с ним в детстве несчастного случая, но отлично читает по губам и в совершенстве владеет арабским. Выполняя очередное задание в одном из ближневосточных государств, он узнаёт, что боевики готовят серию терактов на территории России с использованием девушек-смертниц. Главарь террористов Абу Джалид – идейный полевой командир.





Источник: DVD9 R5
Качество видео: DVDRip-AVC
Формат видео: MKV
Видео: 720->1024x576 (16:9), 25 fps, H264 ~ 1565 kbps avg, 0.151 bit/pixel
Аудио: 48 kHz, Dolby Digital AC3 2.0, 192 kbps
Раздача от:
Общее
Полное имя : Strelok.2012.DVDRip-AVC_[New-team]_by_AVP_Studio.mkv
Формат : Matroska
Версия формата : Version 2
Размер файла : 2,18 Гбайт
Продолжительность : 2 ч. 57 м.
Общий поток : 1759 Кбит/сек
Дата кодирования : UTC 2016-07-10 15:41:20
Программа кодирования : mkvmerge v6.1.0 ('Old Devil') built on Mar 4 2013 09:10:42
Библиотека кодирования : libebml v1.3.0 + libmatroska v1.4.0
Видео
Идентификатор : 1
Формат : AVC
Формат/Информация : Advanced Video Codec
Профиль формата : High@L4.1
Параметр CABAC формата : Да
Параметр ReFrames формата : 10 кадров
Идентификатор кодека : V_MPEG4/ISO/AVC
Продолжительность : 2 ч. 57 м.
Битрейт : 1565 Кбит/сек
Ширина : 720 пикселей
Высота : 576 пикселей
Соотношение сторон : 16:9
Режим частоты кадров : Постоянный
Частота кадров : 25,000 кадров/сек
Стандарт вещания : PAL
Цветовое пространство : YUV
Субдискретизация насыщенности : 4:2:0
Битовая глубина : 8 бит
Тип развёртки : Прогрессивная
Бит/(Пиксели*Кадры) : 0.151
Размер потока : 1,90 Гбайт (87%)
Библиотека кодирования : x264 core 148 r2597 e86f3a1
Настройки программы : cabac=1 / ref=10 / deblock=1:-2:-1 / analyse=0x3:0x113 / me=umh / subme=10 / psy=1 / psy_rd=1.00:0.00 / mixed_ref=1 / me_range=32 / chroma_me=1 / trellis=2 / 8x8dct=1 / cqm=0 / deadzone=21,11 / fast_pskip=1 / chroma_qp_offset=-2 / threads=6 / lookahead_threads=1 / sliced_threads=0 / nr=0 / decimate=0 / interlaced=0 / bluray_compat=0 / constrained_intra=0 / bframes=8 / b_pyramid=2 / b_adapt=2 / b_bias=0 / direct=3 / weightb=1 / open_gop=0 / weightp=2 / keyint=250 / keyint_min=25 / scenecut=40 / intra_refresh=0 / rc=2pass / mbtree=0 / bitrate=1565 / ratetol=1.0 / qcomp=0.60 / qpmin=0 / qpmax=69 / qpstep=4 / cplxblur=20.0 / qblur=0.5 / ip_ratio=1.40 / pb_ratio=1.30 / aq=1:1.00
Default : Да
Forced : Нет
Аудио
Идентификатор : 2
Формат : AC-3
Формат/Информация : Audio Coding 3
Расширение режима : CM (complete main)
Параметр Endianness формата : Big
Идентификатор кодека : A_AC3
Продолжительность : 2 ч. 57 м.
Вид битрейта : Постоянный
Битрейт : 192 Кбит/сек
Каналы : 2 канала
Расположение каналов : Front: L R
Частота : 48,0 КГц
Частота кадров : 31,250 кадров/сек (1536 spf)
Метод сжатия : С потерями
Размер потока : 243 Мбайт (11%)
Default : Да
Forced : Нет





   Похожие торренты   Торрент   Размер 
В этой теме нет новых непрочитанных сообщений. Стрелок (2012) DVDRip от New-Team

73 | 10

2.18 ГБ

В этой теме нет новых непрочитанных сообщений. Стрелок (2012) DVDRip от New-Team

344 | 19

1.46 ГБ

В этой теме нет новых непрочитанных сообщений. Стрелок 2 (2014) DVDRip от New-Team

520 | 33

1.46 ГБ

В этой теме нет новых непрочитанных сообщений. Стрелок 2 (2014) DVDRip-AVC от New-Team

208 | 16

2.18 ГБ

В этой теме нет новых непрочитанных сообщений. Ворошиловский стрелок (1999) DVDRip-AVC от New-Team

248 | 29

1.46 ГБ

В этой теме нет новых непрочитанных сообщений. Ворошиловский стрелок (1999) DVDRip от New-Team

47 | 16

745.18 МБ

В этой теме нет новых непрочитанных сообщений. Ворошиловский стрелок (1999) DVDRip от New-Team

155 | 16

1.46 ГБ




Вы не можете начинать темы
Вы не можете отвечать на сообщения
Вы не можете редактировать свои сообщения
Вы не можете удалять свои сообщения
Вы не можете добавлять вложения

Перейти:  
Для Мосгорсуда, Роскомнадзора и рекламодателей: mosgorsud-torrent[собачка]yandex.ru
 Вход
ppkBB3cker v.2 © 2008-2014 @ PPK
[ Time : 0.572s | 16 Queries | GZIP : Off ]

Торрент трекер RUTOR.IN, Не можете зайти на rutor.org? Какой новый адрес рутор? Какое зеркало рутор? Не работает rutor.org и зеркала? Тогда наш торрент специально для вас. Rutor.in неофициальное зеркало rutor. В случае если у Вас заблокирован rutor или вдруг Вы не можете на него зайти, то Вы без труда сможете скачать бесплатно и без рекламы последние новинки кино, игр, сериалов и прочего у нас, на Rutor.in. Не нужно использовать прокси, чтобы зайти на рутор, достаточно воспользоваться нашим ресурсом. Все новые фильмы, игры, сериалы, книги и музыка за 2013 и 2014 годы через торрент бесплатно. Скачивайте фильмы в хорошем качестве, игры для пк, xbox, playstation без регистрации. У нас вы найдете новые Зарубежные сериалы и Русские сериалы 2013, 2014, 2015 годов. Оставайтесь с нами, качайте любимые фильмы, игры, сериалы, книги и музыку.
cron