img image001 image001 image001 image001 image001 image001 image001 image001 image001 image001 image001 image001 image001 image001 image001

Planets Sun Sun Sun
Статистика раздачи
Автор: PriZraK | Размер: 7.76 ГБ | Добавлен: 15 июл 2016
Раздают: 81    Качают: 5
Скачать торрент
Скачать торрент
Описание торрента

СообщениеДобавлено: 15 июл 2016 



Информация о фильме
Название: Гитлер капут!
Год выхода: 2008
Жанр: комедия, военный
Режиссер: Марюс Вайсберг
В ролях: Павел Деревянко, Анна Семенович, Юрий Гальцев, Юрий Стоянов, Алексей Огурцов, Эвелина Блёданс, Михаил Крылов, Илья Олейников, Алексей Булдаков, Тимати

О фильме: Русский супер-агент — строго засекреченный шпион Шура Осечкин, он же штандартенфюрер СС Олаф Шуренберг, самоотверженно и нахально ведет подрывную деятельность в ставке Гитлера. Войне скоро конец, и это уже понятно всем, кроме фанатичного фюрера и подозрительного Мюллера. Простые труженики Рейха давно махнули на все рукой, пустились в отрыв и бесшабашно тусуются по клубам. Шуренберг скучает по дому и выращивает помидоры в тайной теплице возле своего дома на 007-Штрассе.

Очередное задание Центра сваливается на него прямо с неба — вместе с новой помощницей, очаровательной и сексапильной радисткой Зиной, мечтой каждого мужчины. С такой боевой подругой недолго и про войну забыть! Но долг превыше всего: прежде чем вернуться на Родину и зажить счастливо вместе, супер-агентам Шуренбергу и Зине предстоит провернуть одну, последнюю и очень важную операцию.


Выпущено: Киносфера
Продолжительность: 01:38:40
Перевод: Оригинал (лицензия)

Файл
Кодек: x264
Качество: BDRip (источник: Blu-ray Disc)
Видео: 1920x1080 (16:9), 23.976 fps, 10,8 Mbps
Звук: 48 kHz, AC-3, 6 ch, 448 kbps
Субтитры: Русские
Скачать: сэмпл

Скриншоты

Общее
Уникальный идентификатор : 190459025313825424181129317612992029489 (0x8F4912F1DD7EB7E6A14D235EE54B6331)
Полное имя : Gitler.Kaput.2008.BDRip.1080p.Rus.mkv
Формат : Matroska
Версия формата : Version 2
Размер файла : 7,76 Гбайт
Продолжительность : 1 ч. 38 м.
Общий поток : 11,3 Мбит/сек
Название фильма : Гитлер капут! (2008)
Дата кодирования : UTC 2016-03-06 09:59:37
Программа кодирования : mkvmerge v5.8.0 ('No Sleep / Pillow') built on Sep 2 2012 15:37:04
Библиотека кодирования : libebml v1.2.3 + libmatroska v1.3.0

Видео
Идентификатор : 1
Формат : AVC
Формат/Информация : Advanced Video Codec
Профиль формата : High@L4.1
Параметр CABAC формата : Да
Параметр ReFrames формата : 4 кадра
Идентификатор кодека : V_MPEG4/ISO/AVC
Продолжительность : 1 ч. 38 м.
Битрейт : 10,8 Мбит/сек
Ширина : 1920 пикселей
Высота : 1080 пикселей
Соотношение сторон : 16:9
Режим частоты кадров : Постоянный
Частота кадров : 23,976 кадра/сек
Цветовое пространство : YUV
Субдискретизация насыщенности : 4:2:0
Битовая глубина : 8 бит
Тип развёртки : Прогрессивная
Бит/(Пиксели*Кадры) : 0.217
Размер потока : 7,29 Гбайт (94%)
Заголовок : Release by AlexKa
Библиотека кодирования : x264 core 148 r2638 7599210
Настройки программы : cabac=1 / ref=4 / deblock=1:-3:-3 / analyse=0x3:0x133 / me=umh / subme=11 / psy=1 / psy_rd=1.00:0.10 / mixed_ref=1 / me_range=32 / chroma_me=1 / trellis=2 / 8x8dct=1 / cqm=0 / deadzone=21,11 / fast_pskip=0 / chroma_qp_offset=-3 / threads=12 / lookahead_threads=2 / sliced_threads=0 / nr=0 / decimate=0 / interlaced=0 / bluray_compat=0 / constrained_intra=0 / bframes=9 / b_pyramid=2 / b_adapt=2 / b_bias=0 / direct=3 / weightb=1 / open_gop=0 / weightp=2 / keyint=240 / keyint_min=23 / scenecut=40 / intra_refresh=0 / rc=2pass / mbtree=0 / bitrate=10810 / ratetol=1.0 / qcomp=0.60 / qpmin=0 / qpmax=69 / qpstep=4 / cplxblur=20.0 / qblur=0.5 / ip_ratio=1.40 / pb_ratio=1.30 / aq=1:1.00
Язык : Russian

Аудио
Идентификатор : 2
Формат : AC-3
Формат/Информация : Audio Coding 3
Расширение режима : CM (complete main)
Параметр Endianness формата : Big
Идентификатор кодека : A_AC3
Продолжительность : 1 ч. 38 м.
Вид битрейта : Постоянный
Битрейт : 448 Кбит/сек
Каналы : 6 каналов
Расположение каналов : Front: L C R, Side: L R, LFE
Частота : 48,0 КГц
Метод сжатия : С потерями
Размер потока : 316 Мбайт (4%)
Заголовок : Rus
Язык : Russian

Текст
Идентификатор : 3
Формат : UTF-8
Идентификатор кодека : S_TEXT/UTF8
Идентификатор кодека/Информация : UTF-8 Plain Text
Заголовок : Rus
Язык : Russian

Меню
00:00:00.000 : :Chapter 01
00:03:54.692 : :Chapter 02
00:08:53.282 : :Chapter 03
00:19:17.364 : :Chapter 04
00:28:46.015 : :Chapter 05
00:40:07.154 : :Chapter 06
00:45:48.704 : :Chapter 07
00:51:14.780 : :Chapter 08
00:56:36.142 : :Chapter 09
01:05:46.359 : :Chapter 10
01:19:09.619 : :Chapter 11
01:31:03.416 : :Chapter 12
x264 [info]: frame I:1240 Avg QP:17.87 size:254611
x264 [info]: frame P:28852 Avg QP:20.50 size:114189
x264 [info]: frame B:111838 Avg QP:22.35 size: 39204
x264 [info]: consecutive B-frames: 1.9% 2.0% 9.1% 9.3% 9.0% 60.5% 4.0% 1.3% 2.3% 0.5%



   Похожие торренты   Торрент   Размер 
В этой теме нет новых непрочитанных сообщений. Гитлер капут! (2008) BDRip 1080p

143 | 9

4.37 ГБ

В этой теме нет новых непрочитанных сообщений. Гитлер Капут! (2008) Blu-ray Remux 1080p от ivandubskoj | Лицензия

132 | 7

18.79 ГБ

В этой теме нет новых непрочитанных сообщений. Гитлер Капут! (2008) BDRip-AVC от potroks

40 | 4

2.18 ГБ

В этой теме нет новых непрочитанных сообщений. Гитлер капут! (2008) BDRip от HQ-ViDEO

141 | 5

1.46 ГБ

В этой теме нет новых непрочитанных сообщений. Гитлер капут (2008) BDRip от HQCLUB

249 | 17

1.45 ГБ

В этой теме нет новых непрочитанных сообщений. Гитлер капут! (2008) BDRip от HELLYWOOD

16 | 5

1.46 ГБ

В этой теме нет новых непрочитанных сообщений. Гитлер Капут! (2008) BDRip от ivandubskoj | Лицензия

241 | 27

746.19 МБ




Вы не можете начинать темы
Вы не можете отвечать на сообщения
Вы не можете редактировать свои сообщения
Вы не можете удалять свои сообщения
Вы не можете добавлять вложения

Перейти:  
Для Мосгорсуда, Роскомнадзора и рекламодателей: mosgorsud-torrent[собачка]yandex.ru
 Вход
ppkBB3cker v.2 © 2008-2014 @ PPK
[ Time : 0.565s | 14 Queries | GZIP : Off ]

Торрент трекер RUTOR.IN, Не можете зайти на rutor.org? Какой новый адрес рутор? Какое зеркало рутор? Не работает rutor.org и зеркала? Тогда наш торрент специально для вас. Rutor.in неофициальное зеркало rutor. В случае если у Вас заблокирован rutor или вдруг Вы не можете на него зайти, то Вы без труда сможете скачать бесплатно и без рекламы последние новинки кино, игр, сериалов и прочего у нас, на Rutor.in. Не нужно использовать прокси, чтобы зайти на рутор, достаточно воспользоваться нашим ресурсом. Все новые фильмы, игры, сериалы, книги и музыка за 2013 и 2014 годы через торрент бесплатно. Скачивайте фильмы в хорошем качестве, игры для пк, xbox, playstation без регистрации. У нас вы найдете новые Зарубежные сериалы и Русские сериалы 2013, 2014, 2015 годов. Оставайтесь с нами, качайте любимые фильмы, игры, сериалы, книги и музыку.