img image001 image001 image001 image001 image001 image001 image001 image001 image001 image001 image001 image001 image001 image001 image001

Planets Sun Sun Sun
Статистика раздачи
Автор: PriZraK | Размер: 1.75 ГБ | Добавлен: 15 июл 2016
Раздают: 13    Качают: 3
Скачать торрент
Скачать торрент
Описание торрента

СообщениеДобавлено: 15 июл 2016 



Информация о фильме
Название: Ветер забвения
Год выхода: 1989
Жанр: философский, арт-хаус
Режиссер: Арутюн Хачатрян
В ролях: Рубен Ахвердян, Г. Агекян, В. Ананян, Гай Хачатрян, Лилита Аветисян, Л. Гомолко, Р. Хачатрян, А. Егикян, Микаэл Погосян, Виген Чалдранян, Владимир Мсрян, Арутюн Хачатрян
Голос за кадром: Армен Джигарханян

О фильме:
Герои фильма покидают Армению и отправляются в поездку по стране. Цель путешествия Рубена и Олега — найти друзей, которые когда-то покинули родину, и узнать, что заставило их искать счастье в чужих краях?

Дополнительно:
Запись потока *.ts с наземного цифрового телеканала "Беларусь 3".

Благодарность: за помощь с недостающим материалом Bartimeyse и PavelDAS. Обоим большое спасибо!

Страна: СССР
Студия: Арменфильм
Продолжительность: 01:34:35
Перевод: не требует

Файл
Кодек: AVC (H264)
Качество: DVB
Видео: MPEG4 Video (H264) 720(785)x576 (4:3) 25fps, 2 263 Kbps
Звук: MPEG Audio 48000Hz stereo 256kbps

Семпл:
http://multi-up.com/1109821
https://www.sendspace.com/file/jfsohv

Код:
General
ID                             : 1 (0x1)
Complete name                  : D:Новая  земля 2Художественные фильмыВетер забвения (1989)Ветер забвения (1989).ts
Format                         : MPEG-TS
File size                      : 1.75 GiB
Duration                       : 1h 34mn
Overall bit rate mode          : Variable
Overall bit rate               : 2 653 Kbps

Video
ID                             : 801 (0x321)
Menu ID                        : 1 (0x1)
Format                         : AVC
Format/Info                    : Advanced Video Codec
Format profile                 : Main@L3.0
Format settings, CABAC         : Yes
Format settings, ReFrames      : 4 frames
Format settings, GOP           : M=4, N=24
Codec ID                       : 27
Duration                       : 1h 34mn
Bit rate                       : 2 263 Kbps
Width                          : 720 pixels
Height                         : 576 pixels
Display aspect ratio           : 4:3
Frame rate                     : 25.000 fps
Standard                       : PAL
Color space                    : YUV
Chroma subsampling             : 4:2:0
Bit depth                      : 8 bits
Scan type                      : MBAFF
Scan order                     : Top Field First
Bits/(Pixel*Frame)             : 0.218
Stream size                    : 1.50 GiB (85%)
Color primaries                : BT.601 PAL
Transfer characteristics       : BT.470 System B, BT.470 System G
Matrix coefficients            : BT.601
Color range                    : Limited

Audio
ID                             : 802 (0x322)
Menu ID                        : 1 (0x1)
Format                         : MPEG Audio
Format version                 : Version 1
Format profile                 : Layer 2
Codec ID                       : 3
Duration                       : 1h 34mn
Bit rate mode                  : Constant
Bit rate                       : 256 Kbps
Channel(s)                     : 2 channels
Sampling rate                  : 48.0 KHz
Compression mode               : Lossy
Stream size                    : 173 MiB (10%)
Language                       : English






   Похожие торренты   Торрент   Размер 
В этой теме нет новых непрочитанных сообщений. Бесаме (1989) DVB от AND03AND | Р2

4 | 0

1.74 ГБ

В этой теме нет новых непрочитанных сообщений. Приближение (1989) DVB от AND03AND

3 | 4

1.52 ГБ

В этой теме нет новых непрочитанных сообщений. Новогодний голубой огонёк 1988 (1989) DVB от AND03AND

45 | 64

5.2 ГБ

В этой теме нет новых непрочитанных сообщений. Балет - Сергей Прокофьев - Ромео и Джульетта (1989) BD DVB от AND03AND

5 | 0

1.87 ГБ

В этой теме нет новых непрочитанных сообщений. Человек, которого не было / Inimene, keda polnud (1989) DVB от AND03AND | P2

5 | 0

1.57 ГБ

В этой теме нет новых непрочитанных сообщений. Опера - Дикая охота короля Стаха / Дзікае паляванне караля Стаха [BLR] (1989) DVB от AND03AND

2 | 12

1.83 ГБ

В этой теме нет новых непрочитанных сообщений. Земля забвения (2011) TC | КПК

91 | 15

398.38 МБ




Вы не можете начинать темы
Вы не можете отвечать на сообщения
Вы не можете редактировать свои сообщения
Вы не можете удалять свои сообщения
Вы не можете добавлять вложения

Перейти:  
Для Мосгорсуда, Роскомнадзора и рекламодателей: mosgorsud-torrent[собачка]yandex.ru
 Вход
ppkBB3cker v.2 © 2008-2014 @ PPK
[ Time : 0.053s | 15 Queries | GZIP : Off ]

cron