img image001 image001 image001 image001 image001 image001 image001 image001 image001 image001 image001 image001 image001 image001 image001

Planets Sun Sun Sun
Статистика раздачи
Автор: PriZraK | Размер: 593.02 МБ | Добавлен: 18 июл 2016
Раздают: 70    Качают: 4
Скачать торрент
Скачать торрент
Описание торрента

СообщениеДобавлено: 18 июл 2016 


Информация о фильме
Название: Мы с дедушкой
Год выхода: 2014
Жанр: драма, семейный
Режиссер: Александр Кулямин
В ролях: Юрий Назаров, Тимофей Разуваев, Алексей Тихонов, Екатерина Альбрандт, Людмила Мальцева, Ольга Воронцова, Галина Чурилина, Олег Иванов
О фильме:
Картина рассказывает о мальчике, который всю жизнь прожил в городе и о деревне имеет смутные представления. Но однажды его отправят на каникулы к дедушке. Будут ссоры, непонимание, и только случай, который чуть не стоил деду жизни, всё изменит.

Производство: Россия / Ленкино, Леда-фильм
Продолжительность: 01:33:36
Перевод: не требуется
Файл
Качество: WEBRip-AVC
Формат: MKV
Видео: MPEG-4 AVC, 854x480 (16:9), 25.000 fps, 740 kbps, 0.072 bit/pixel
Аудио: русский, AC3 2.0, 44.1 kHz, 128 kbps
Формат : Matroska
Версия формата : Version 4 / Version 2
Размер файла : 593 Мбайт
Продолжительность : 1 ч. 33 м.
Общий поток : 886 Кбит/сек
Дата кодирования : UTC 2016-07-16 12:34:54
Программа кодирования : mkvmerge v7.9.0 ('Birds') 64bit
Библиотека кодирования : libebml v1.3.1 + libmatroska v1.4.2
Видео
Идентификатор : 1
Формат : AVC
Формат/Информация : Advanced Video Codec
Профиль формата : Main@L3
Параметр CABAC формата : Да
Параметр ReFrames формата : 3 кадра
Идентификатор кодека : V_MPEG4/ISO/AVC
Продолжительность : 1 ч. 33 м.
Битрейт : 740 Кбит/сек
Ширина : 854 пикселя
Высота : 480 пикселей
Соотношение сторон : 16:9
Режим частоты кадров : Постоянный
Частота кадров : 25,000 кадров/сек
Цветовое пространство : YUV
Субдискретизация насыщенности : 4:2:0
Битовая глубина : 8 бит
Тип развёртки : Прогрессивная
Бит/(Пиксели*Кадры) : 0.072
Размер потока : 496 Мбайт (84%)
Default : Да
Forced : Нет
Аудио
Идентификатор : 2
Формат : AC-3
Формат/Информация : Audio Coding 3
Расширение режима : CM (complete main)
Параметр Endianness формата : Big
Идентификатор кодека : A_AC3
Продолжительность : 1 ч. 33 м.
Вид битрейта : Постоянный
Битрейт : 128 Кбит/сек
Каналы : 2 канала
Расположение каналов : Front: L R
Частота : 44,1 КГц
Метод сжатия : С потерями
Размер потока : 85,7 Мбайт (14%)
Язык : Russian
Default : Да
Forced : Нет



   Похожие торренты   Торрент   Размер 
В этой теме нет новых непрочитанных сообщений. Мы с дедушкой (2014) WEBRip

394 | 17

1.48 ГБ

В этой теме нет новых непрочитанных сообщений. Велоспорт. Чемпионат Мира на треке 2014 / World Championships Track 2014 (2014) WEBRip 720p

0 | 11

7.71 ГБ

В этой теме нет новых непрочитанных сообщений. Собчак живьём. Александр Бородай [эфир от 12.11.2014] (2014) WEBRip 720p

81 | 2

1.72 ГБ

В этой теме нет новых непрочитанных сообщений. Собчак живьём. Николай Басков [эфир от 15.10.2014] (2014) WEBRip 720p

46 | 3

975.04 МБ

В этой теме нет новых непрочитанных сообщений. Силовой Экстрим. Strongman. World's Strongest Man 2014 [22-29.03] (2014) WEBRip 720p

0 | 0

4.37 ГБ

В этой теме нет новых непрочитанных сообщений. Собчак живьём. Жора Крыжовников [эфир от 22.10.2014] (2014) WEBRip 720p

20 | 5

974.34 МБ

В этой теме нет новых непрочитанных сообщений. Собчак живьём. Сергей Минаев [эфир от 08.10.2014] (2014) WEBRip 720p

48 | 5

975.34 МБ




Вы не можете начинать темы
Вы не можете отвечать на сообщения
Вы не можете редактировать свои сообщения
Вы не можете удалять свои сообщения
Вы не можете добавлять вложения

Перейти:  
Для Мосгорсуда, Роскомнадзора и рекламодателей: mosgorsud-torrent[собачка]yandex.ru
 Вход
ppkBB3cker v.2 © 2008-2014 @ PPK
[ Time : 0.105s | 15 Queries | GZIP : Off ]
CGP output time : 0.069s | 5 Queries | GZIP : Off

Торрент трекер RUTOR.IN, Не можете зайти на rutor.org? Какой новый адрес рутор? Какое зеркало рутор? Не работает rutor.org и зеркала? Тогда наш торрент специально для вас. Rutor.in неофициальное зеркало rutor. В случае если у Вас заблокирован rutor или вдруг Вы не можете на него зайти, то Вы без труда сможете скачать бесплатно и без рекламы последние новинки кино, игр, сериалов и прочего у нас, на Rutor.in. Не нужно использовать прокси, чтобы зайти на рутор, достаточно воспользоваться нашим ресурсом. Все новые фильмы, игры, сериалы, книги и музыка за 2013 и 2014 годы через торрент бесплатно. Скачивайте фильмы в хорошем качестве, игры для пк, xbox, playstation без регистрации. У нас вы найдете новые Зарубежные сериалы и Русские сериалы 2013, 2014, 2015 годов. Оставайтесь с нами, качайте любимые фильмы, игры, сериалы, книги и музыку.