img image001 image001 image001 image001 image001 image001 image001 image001 image001 image001 image001 image001 image001 image001 image001

Planets Sun Sun Sun
Статистика раздачи
Автор: Nickolas3434 | Размер: 1.42 ГБ | Добавлен: 21 июл 2016
Раздают: 701    Качают: 15
Скачать торрент
Скачать торрент
Описание торрента

СообщениеДобавлено: 21 июл 2016 


Информация о фильме
Оригинальное название: Завтрак у папы
Год выпуска: 2016
Жанр: Комедия
Выпущено: Россия, All Media Company
Режиссер: Мария Кравченко
В ролях: Юрий Колокольников, Катерина Шпица, Луиза-Габриэла Бровина, Полина Максимова, Валентин Пелка, Кристина Шаповалова, Никита Тарасов, Михаил Полицеймако
О фильме: У молодого, привлекательного и самовлюбленного Саши Титова в жизни, на первый взгляд, все сложилось как нельзя лучше: он успешный креативный директор рекламного агентства и полностью удовлетворен ни к чему не обязывающими отношениями с коллегой Оксаной Тарелкиной. Но однажды утром на пороге своего пентхауса Саша встречает милую десятилетнюю девчушку Алю, которая представляется его дочкой. Ворвавшись в жизнь Саши, смышленая и любознательная Аля серьезно намерена надолго в ней обосноваться. Но готов ли Саша принять все сюрпризы, приготовленные судьбой, и в корне изменить привычную холостяцкую жизнь?

Файл
Качество: WEB-DL (AVC)
Видео: MPEG-4 AVC, 2015 Кбит/с, 1024x430, 24 кадр/с
Аудио: AC3, 2 ch, 192 Кбит/с
Размер: 1.42 ГБ
Продолжительность: 01:31:52
Язык: Русский
Озвучивание - (iTunes Russia)
x264 [info]: frame I:1619 Avg QP:15.03 size: 66631
x264 [info]: frame P:35182 Avg QP:17.81 size: 21023
x264 [info]: frame B:95489 Avg QP:19.59 size: 5663
x264 [info]: consecutive B-frames: 2.7% 5.3% 7.3% 70.3% 5.3% 7.2% 0.5% 0.7% 0.2% 0.2% 0.4%
x264 [info]: mb I I16..4: 7.6% 66.5% 25.9%
x264 [info]: mb P I16..4: 0.6% 9.8% 1.5% P16..4: 29.5% 34.0% 14.2% 2.7% 0.3% skip: 7.4%
x264 [info]: mb B I16..4: 0.1% 1.0% 0.1% B16..8: 28.0% 19.1% 3.9% direct: 5.2% skip:42.7% L0:35.0% L1:45.4% BI:19.7%
x264 [info]: 8x8 transform intra:79.0% inter:49.4%
x264 [info]: direct mvs spatial:96.5% temporal:3.5%
x264 [info]: coded y,uvDC,uvAC intra: 92.6% 91.9% 78.2% inter: 21.1% 19.6% 12.1%
x264 [info]: i16 v,h,dc,p: 20% 10% 10% 59%
x264 [info]: i8 v,h,dc,ddl,ddr,vr,hd,vl,hu: 15% 10% 8% 8% 11% 13% 11% 13% 13%
x264 [info]: i4 v,h,dc,ddl,ddr,vr,hd,vl,hu: 17% 10% 4% 8% 14% 14% 12% 11% 11%
x264 [info]: i8c dc,h,v,p: 43% 20% 20% 17%
x264 [info]: Weighted P-Frames: Y:1.2% UV:0.5%
x264 [info]: ref P L0: 55.9% 10.1% 17.2% 4.9% 4.0% 2.5% 2.2% 1.1% 1.1% 1.0% 0.1% 0.0%
x264 [info]: ref B L0: 83.2% 9.1% 3.4% 1.6% 1.0% 0.8% 0.6% 0.3% 0.2%
x264 [info]: ref B L1: 96.3% 3.7%
x264 [info]: kb/s:2014.87

Общее
Уникальный идентификатор : 243140249244381194616445939339807723415 (0xB6EB1BD1D5570F92A58001EAFF7C8F97)
Полное имя : D:ЗагрузкиZavtrak.U.Papi.2016.x264.WEB-DLRip.AVC.ExKinoRay.mkv
Формат : Matroska
Версия формата : Version 2
Размер файла : 1,42 Гбайт
Продолжительность : 1 ч. 31 м.
Общий поток : 2209 Кбит/сек
Название фильма : Завтрак у папы.2016.Rip by: ollan
Дата кодирования : UTC 2016-07-21 12:25:25
Программа кодирования : mkvmerge v5.6.0 ('Kenya Kane') built on May 27 2012 16:44:04
Библиотека кодирования : libebml v1.2.3 + libmatroska v1.3.0
Обложка : Yes
Attachments : Cover - Zavtrak.U.Papi.png
Видео
Идентификатор : 1
Формат : AVC
Формат/Информация : Advanced Video Codec
Профиль формата : High@L4.1
Параметр CABAC формата : Да
Параметр ReFrames формата : 10 кадров
Идентификатор кодека : V_MPEG4/ISO/AVC
Продолжительность : 1 ч. 31 м.
Битрейт : 2015 Кбит/сек
Ширина : 1024 пикселя
Высота : 430 пикселей
Соотношение сторон : 2,40:1
Режим частоты кадров : Постоянный
Частота кадров : 24,000 кадра/сек
Цветовое пространство : YUV
Субдискретизация насыщенности : 4:2:0
Битовая глубина : 8 бит
Тип развёртки : Прогрессивная
Бит/(Пиксели*Кадры) : 0.191
Размер потока : 1,27 Гбайт (89%)
Библиотека кодирования : x264 core 146 r2538 121396c
Настройки программы : cabac=1 / ref=10 / deblock=1:-3:-3 / analyse=0x3:0x133 / me=umh / subme=11 / psy=1 / psy_rd=1.00:0.05 / mixed_ref=1 / me_range=48 / chroma_me=1 / trellis=2 / 8x8dct=1 / cqm=0 / deadzone=21,11 / fast_pskip=0 / chroma_qp_offset=-3 / threads=12 / lookahead_threads=3 / sliced_threads=0 / nr=0 / decimate=0 / interlaced=0 / bluray_compat=0 / constrained_intra=0 / bframes=10 / b_pyramid=2 / b_adapt=2 / b_bias=0 / direct=3 / weightb=1 / open_gop=0 / weightp=2 / keyint=240 / keyint_min=23 / scenecut=40 / intra_refresh=0 / rc_lookahead=40 / rc=2pass / mbtree=0 / bitrate=2015 / ratetol=1.0 / qcomp=0.60 / qpmin=0 / qpmax=69 / qpstep=4 / cplxblur=20.0 / qblur=0.5 / vbv_maxrate=50000 / vbv_bufsize=62500 / nal_hrd=none / filler=0 / ip_ratio=1.40 / pb_ratio=1.30 / aq=1:1.00
Язык : Russian
Default : Да
Forced : Нет
Аудио
Идентификатор : 2
Формат : AC-3
Формат/Информация : Audio Coding 3
Расширение режима : CM (complete main)
Параметр Endianness формата : Big
Идентификатор кодека : A_AC3
Продолжительность : 1 ч. 31 м.
Вид битрейта : Постоянный
Битрейт : 192 Кбит/сек
Каналы : 2 канала
Расположение каналов : Front: L R
Частота : 48,0 КГц
Частота кадров : 31,250 кадров/сек (1536 spf)
Метод сжатия : С потерями
Размер потока : 126 Мбайт (9%)
Заголовок : iTunes Russia
Язык : Russian
Default : Да
Forced : Нет
Меню
00:00:00.000 : ru:Chapter 01
00:05:21.458 : ru:Chapter 02
00:10:52.791 : ru:Chapter 03
00:15:59.041 : ru:Chapter 04
00:21:37.791 : ru:Chapter 05
00:26:55.624 : ru:Chapter 06
00:32:20.415 : ru:Chapter 07
00:37:27.915 : ru:Chapter 08
00:42:28.790 : ru:Chapter 09
00:48:19.248 : ru:Chapter 10
00:54:26.539 : ru:Chapter 11
01:00:39.664 : ru:Chapter 12
01:06:34.539 : ru:Chapter 13
01:18:09.955 : ru:Chapter 14
01:23:15.080 : ru:Chapter 16





Релиз от: Rip by:



   Похожие торренты   Торрент   Размер 
В этой теме нет новых непрочитанных сообщений. Завтрак у папы (2016) WEB-DLRip-AVC от ExKinoRay | iTunes Russia

333 | 8

1.46 ГБ

В этой теме нет новых непрочитанных сообщений. Завтрак у папы (2016) WEB-DLRip | КПК | iTunes

302 | 25

414.95 МБ

В этой теме нет новых непрочитанных сообщений. Завтрак у папы (2016) WEB-DLRip от Generalfilm | КПК | iTunes

87 | 1

434.02 МБ

В этой теме нет новых непрочитанных сообщений. Завтрак у папы (2016) WEB-DLRip от GeneralFilm | iTunes

358 | 16

1.45 ГБ

В этой теме нет новых непрочитанных сообщений. Завтрак у папы (2015) WEB-DLRip | iTunes

24043 | 776

1.37 ГБ

В этой теме нет новых непрочитанных сообщений. Завтрак у папы (2015) WEB-DLRip-AVC | iTunes

239 | 14

1.73 ГБ

В этой теме нет новых непрочитанных сообщений. Завтрак у папы (2015) WEB-DLRip от New-Team | iTunes

770 | 22

1.45 ГБ




Вы не можете начинать темы
Вы не можете отвечать на сообщения
Вы не можете редактировать свои сообщения
Вы не можете удалять свои сообщения
Вы не можете добавлять вложения

Перейти:  
Для Мосгорсуда, Роскомнадзора и рекламодателей: mosgorsud-torrent[собачка]yandex.ru
 Вход
ppkBB3cker v.2 © 2008-2014 @ PPK
[ Time : 0.868s | 15 Queries | GZIP : On ]

Торрент трекер RUTOR.IN, Не можете зайти на rutor.org? Какой новый адрес рутор? Какое зеркало рутор? Не работает rutor.org и зеркала? Тогда наш торрент специально для вас. Rutor.in неофициальное зеркало rutor. В случае если у Вас заблокирован rutor или вдруг Вы не можете на него зайти, то Вы без труда сможете скачать бесплатно и без рекламы последние новинки кино, игр, сериалов и прочего у нас, на Rutor.in. Не нужно использовать прокси, чтобы зайти на рутор, достаточно воспользоваться нашим ресурсом. Все новые фильмы, игры, сериалы, книги и музыка за 2013 и 2014 годы через торрент бесплатно. Скачивайте фильмы в хорошем качестве, игры для пк, xbox, playstation без регистрации. У нас вы найдете новые Зарубежные сериалы и Русские сериалы 2013, 2014, 2015 годов. Оставайтесь с нами, качайте любимые фильмы, игры, сериалы, книги и музыку.