img image001 image001 image001 image001 image001 image001 image001 image001 image001 image001 image001 image001 image001 image001 image001

Planets Sun Sun Sun
Статистика раздачи
Автор: PriZraK | Размер: 1.09 ГБ | Добавлен: 25 июл 2016
Раздают: 13    Качают: 2
Скачать торрент
Скачать торрент
Описание торрента

СообщениеДобавлено: 25 июл 2016 

Страна: СССР
Производство: Киевская к/ст
Жанр: драма
Год выпуска: 1955
Продолжительность: 01:18:09
Перевод: Не требуется
Cубтитры: нет
Оригинальная аудиодорожка: русский
Режиссер: Яков Базелян
В ролях:
Юрий Саранцев, Аркадий Толбузин, Ролан Быков, Леонид Пирогов, Валентина Ушакова, Татьяна Алексеева, Евгения Ершова, Ада Войцик, Георгий Юматов, Муза Крепкогорская...
Полный список актёров
Описание:
Сельский врач Иван Бойко получает приглашение в столичную клинику. Здесь герой встречает институтского друга Дмитрия Костенко, преуспевающего доцента. Очень скоро Иван убеждается в моральной нечистоплотности Дмитрия, присвоившего научный труд скромного коллеги Венника. Бойко разоблачает перед коллективом нечистого на руку кандидата наук.





Источник: DVB
Качество видео: SATRip-AVC
Формат видео: MKV
Видео: 704->762x572 (4:3), 25 fps, H264 ~ 1797 kbps avg, 0.178 bit/pixel
Аудио: 48 kHz, Dolby Digital AC3 2.0, 192 kbps
Раздача от:
Общее
Полное имя : Puti.i.sudby.1955.SATRip-AVC_[New-team]_by_AVP_Studio-002.mkv
Формат : Matroska
Версия формата : Version 4 / Version 2
Размер файла : 1,09 Гбайт
Продолжительность : 1 ч. 18 м.
Общий поток : 1991 Кбит/сек
Дата кодирования : UTC 2016-07-23 08:12:45
Программа кодирования : mkvmerge v9.3.1 ('Mask Machine') 64bit
Библиотека кодирования : libebml v1.3.4 + libmatroska v1.4.5
Видео
Идентификатор : 1
Формат : AVC
Формат/Информация : Advanced Video Codec
Профиль формата : High@L4.1
Параметр CABAC формата : Да
Параметр ReFrames формата : 10 кадров
Идентификатор кодека : V_MPEG4/ISO/AVC
Продолжительность : 1 ч. 18 м.
Битрейт : 1797 Кбит/сек
Ширина : 704 пикселя
Высота : 572 пикселя
Соотношение сторон : 4:3
Режим частоты кадров : Постоянный
Частота кадров : 25,000 кадров/сек
Цветовое пространство : YUV
Субдискретизация насыщенности : 4:2:0
Битовая глубина : 8 бит
Тип развёртки : Прогрессивная
Бит/(Пиксели*Кадры) : 0.178
Размер потока : 1004 Мбайт (90%)
Язык : Russian
Default : Да
Forced : Нет
Аудио
Идентификатор : 2
Формат : AC-3
Формат/Информация : Audio Coding 3
Расширение режима : CM (complete main)
Параметр Endianness формата : Big
Идентификатор кодека : A_AC3
Продолжительность : 1 ч. 18 м.
Вид битрейта : Постоянный
Битрейт : 192 Кбит/сек
Каналы : 2 канала
Расположение каналов : Front: L R
Частота : 48,0 КГц
Частота кадров : 31,250 кадров/сек (1536 spf)
Метод сжатия : С потерями
Задержка видео : 8 мс.
Размер потока : 107 Мбайт (10%)
Язык : Russian
Default : Да
Forced : Нет





   Похожие торренты   Торрент   Размер 
В этой теме нет новых непрочитанных сообщений. Пути и судьбы (1955) SATRip от New-Team

14 | 5

1.09 ГБ

В этой теме нет новых непрочитанных сообщений. Пути и судьбы (1955) SATRip от New-Team

12 | 1

743.66 МБ

В этой теме нет новых непрочитанных сообщений. Они встретились в пути (1957) SATRip от New-Team

0 | 1

744.4 МБ

В этой теме нет новых непрочитанных сообщений. Они встретились в пути (1957) SATRip-AVC от New-Team

3 | 0

1.09 ГБ

В этой теме нет новых непрочитанных сообщений. Свидание на млечном пути (1985) SATRip от New-Team

12 | 1

745.38 МБ

В этой теме нет новых непрочитанных сообщений. Свидание на млечном пути (1985) SATRip-AVC от New-Team

17 | 0

744.05 МБ

В этой теме нет новых непрочитанных сообщений. Сын (1955) SATRip от New-Team

4 | 2

1.09 ГБ




Вы не можете начинать темы
Вы не можете отвечать на сообщения
Вы не можете редактировать свои сообщения
Вы не можете удалять свои сообщения
Вы не можете добавлять вложения

Перейти:  
Для Мосгорсуда, Роскомнадзора и рекламодателей: mosgorsud-torrent[собачка]yandex.ru
 Вход
ppkBB3cker v.2 © 2008-2014 @ PPK
[ Time : 0.053s | 16 Queries | GZIP : Off ]

cron