img image001 image001 image001 image001 image001 image001 image001 image001 image001 image001 image001 image001 image001 image001 image001

Planets Sun Sun Sun
Статистика раздачи
Автор: PriZraK | Размер: 1.46 ГБ | Добавлен: 29 июл 2016
Раздают: 204    Качают: 9
Скачать торрент
Скачать торрент
Описание торрента

СообщениеДобавлено: 29 июл 2016 


Информация о фильме
Оригинальное название: По небу босиком
Год выпуска: 2015
Жанр: Мелодрама, комедия
Выпущено: Россия, Storm Cinema
Режиссер: Султан Хажироко
В ролях: Алан Кокаев, Милана Карагулова, Султан Хажироко, Арсенуко Масаев, Валентин Камергоев, Роза Байзуллаева, Фатима Мамаева, Юсуп Омаров, Ефрем Амирамов, Сати Казанова, Вадим Мисостов, Олег Гусейнов, Лариса Кярова, Ахмет Хамурзов, Роман Крюков, Людмила Шереметова, Басир Шибзухов
О фильме:
Говорят, что случайностей в жизни не бывает, что все предопределено… быть может там на небе есть такое министерство… ну, в котором все за нас решают: что и когда с нами должно произойти». С этих слов начинается история, в которой судьба играет с главными героями, превращая близких людей, в совсем незнакомых, даря им любовь и тут же забирая ее назад, сменяет радость грустью, а дружбу предательством. Но какие бы сюрпризы не преподносила жизнь — танцуй, ведь ты так молод, люби, ведь ты так одинок.

Файл
Качество: WEB-DLRip
Видео: XviD build 73, 2071 Кбит/с, 720x400, 25 кадр/с, (Bits/Pixel*Frame 0.288)
Аудио: AC3, 2 ch, 192 Кбит/с
Продолжительность: 01:31:44
Язык: Русский
Озвучивание: - (iTunes)
General
Complete name : Po.Nebu.Bosikom.2015.XviD.WEB-DLRip.by.GeneralFilm.avi
Format : AVI
Format/Info : Audio Video Interleave
File size : 1.46 GiB
Duration : 1h 31mn
Overall bit rate : 2 273 Kbps
Writing application : VirtualDubMod 1.5.10.3 | www.virtualdub-fr.org || (build 2550/release)
Writing library : VirtualDubMod build 2550/release
Video
ID : 0
Format : MPEG-4 Visual
Format profile : Advanced Simple@L5
Format settings, BVOP : 1
Format settings, QPel : No
Format settings, GMC : No warppoints
Format settings, Matrix : Custom
Codec ID : XVID
Codec ID/Hint : XviD
Duration : 1h 31mn
Bit rate : 2 071 Kbps
Width : 720 pixels
Height : 400 pixels
Display aspect ratio : 16:9
Frame rate : 25.000 fps
Color space : YUV
Chroma subsampling : 4:2:0
Bit depth : 8 bits
Scan type : Progressive
Compression mode : Lossy
Bits/(Pixel*Frame) : 0.288
Stream size : 1.33 GiB (91%)
Writing library : XviD 73
Audio
ID : 1
Format : AC-3
Format/Info : Audio Coding 3
Mode extension : CM (complete main)
Format settings, Endianness : Big
Codec ID : 2000
Duration : 1h 31mn
Bit rate mode : Constant
Bit rate : 192 Kbps
Channel(s) : 2 channels
Channel positions : Front: L R
Sampling rate : 48.0 KHz
Frame rate : 31.250 fps (1536 spf)
Compression mode : Lossy
Stream size : 126 MiB (8%)
Alignment : Split accross interleaves
Interleave, duration : 40 ms (1.00 video frame)
Interleave, preload duratio : 500 ms






Релиз от:



   Похожие торренты   Торрент   Размер 
В этой теме нет новых непрочитанных сообщений. По небу босиком (2015) WEB-DLRip от Generalfilm | КПК | iTunes

39 | 2

414.76 МБ

В этой теме нет новых непрочитанных сообщений. По небу босиком (2015) WEB-DLRip | iTunes

172 | 6

700.24 МБ

В этой теме нет новых непрочитанных сообщений. По небу босиком (2015) WEB-DLRip-AVC от New-Team | iTunes

187 | 13

1.46 ГБ

В этой теме нет новых непрочитанных сообщений. По небу босиком (2015) WEB-DLRip от New-Team | iTunes

1765 | 336

1.45 ГБ

В этой теме нет новых непрочитанных сообщений. По небу босиком (2015) WEB-DLRip от New-Team | iTunes

163 | 11

742.62 МБ

В этой теме нет новых непрочитанных сообщений. По небу босиком (2015) WEB-DLRip-AVC от ExKinoRay | iTunes Russia

144 | 8

1.33 ГБ

В этой теме нет новых непрочитанных сообщений. По небу босиком (2015) WEB-DL 1080p | iTunes

342 | 26

3.48 ГБ




Вы не можете начинать темы
Вы не можете отвечать на сообщения
Вы не можете редактировать свои сообщения
Вы не можете удалять свои сообщения
Вы не можете добавлять вложения

Перейти:  
Для Мосгорсуда, Роскомнадзора и рекламодателей: mosgorsud-torrent[собачка]yandex.ru
 Вход
ppkBB3cker v.2 © 2008-2014 @ PPK
[ Time : 0.019s | 14 Queries | GZIP : On ]

Торрент трекер RUTOR.IN, Не можете зайти на rutor.org? Какой новый адрес рутор? Какое зеркало рутор? Не работает rutor.org и зеркала? Тогда наш торрент специально для вас. Rutor.in неофициальное зеркало rutor. В случае если у Вас заблокирован rutor или вдруг Вы не можете на него зайти, то Вы без труда сможете скачать бесплатно и без рекламы последние новинки кино, игр, сериалов и прочего у нас, на Rutor.in. Не нужно использовать прокси, чтобы зайти на рутор, достаточно воспользоваться нашим ресурсом. Все новые фильмы, игры, сериалы, книги и музыка за 2013 и 2014 годы через торрент бесплатно. Скачивайте фильмы в хорошем качестве, игры для пк, xbox, playstation без регистрации. У нас вы найдете новые Зарубежные сериалы и Русские сериалы 2013, 2014, 2015 годов. Оставайтесь с нами, качайте любимые фильмы, игры, сериалы, книги и музыку.