img image001 image001 image001 image001 image001 image001 image001 image001 image001 image001 image001 image001 image001 image001 image001

Planets Sun Sun Sun
Статистика раздачи
Автор: Nickolas3434 | Размер: 1.37 ГБ | Добавлен: 31 июл 2016
Раздают: 53    Качают: 2
Скачать торрент
Скачать торрент
Описание торрента

СообщениеДобавлено: 31 июл 2016 


Информация о фильме
Название: Берегите мужчин
Год выхода: 1982
Жанр: Комедия
Режиссёр: Александр Серый
В ролях: Леонид Куравлёв, Нина Русланова, Александр Лазарев, Александр Вокач, Наталья Селезнёва, Нина Агапова, Вадим Захарченко, Николай Кочегаров,
Римма Маркова, Марина Стриженова
О фильме: Она — деловая, мужественная, энергичная. Он — бесхребетный, неловкий и к тому же не поддающийся «исправлению». Дело идет к разводу. Тем более, что на горизонте вдруг появляется пылкий поклонник ее красоты. Однако это обстоятельство, в конечном счете, приводит к неожиданному результату...

Страна: СССР
Студия: Мосфильм
Продолжительность: 01:15:27
Перевод: Не требуется (оригинальный)
Файл
Формат: avi
Качество: DVDRip (DVD5)
Видео: XviD, 688х368, 25fps, 2400kbps
Аудио: AC3 Dolby Digital, 2ch, 48000Hz, 192kbps

General
Complete name : Beregite.Muzhchin.1982.O.DVDRip.1400.CurHaJI.avi
Format : AVI
Format/Info : Audio Video Interleave
File size : 1.37 GiB
Duration : 1h 15mn
Overall bit rate : 2 602 Kbps
Movie name : Beregite.Muzhchin.1982.O.DVDRip.1400.CurHaJI
Writing application : VirtualDubMod 1.5.10.3 | www.virtualdub-fr.org || (build 2550/release)
Writing library : VirtualDub build 35491/release
Video
ID : 0
Format : MPEG-4 Visual
Format profile : Advanced Simple@L5
Format settings, BVOP : 2
Format settings, QPel : No
Format settings, GMC : No warppoints
Format settings, Matrix : Custom
Codec ID : XVID
Codec ID/Hint : XviD
Duration : 1h 15mn
Bit rate : 2 400 Kbps
Width : 688 pixels
Height : 368 pixels
Display aspect ratio : 1.85:1
Frame rate : 25.000 fps
Color space : YUV
Chroma subsampling : 4:2:0
Bit depth : 8 bits
Scan type : Progressive
Compression mode : Lossy
Bits/(Pixel*Frame) : 0.379
Stream size : 1.26 GiB (92%)
Writing library : XviD 73
Audio
ID : 1
Format : AC-3
Format/Info : Audio Coding 3
Mode extension : CM (complete main)
Format settings, Endianness : Big
Codec ID : 2000
Duration : 1h 15mn
Bit rate mode : Constant
Bit rate : 192 Kbps
Channel(s) : 2 channels
Channel positions : Front: L R
Sampling rate : 48.0 KHz
Bit depth : 16 bits
Compression mode : Lossy
Stream size : 104 MiB (7%)
Alignment : Split accross interleaves
Interleave, duration : 40 ms (1.00 video frame)
Interleave, preload duration : 500 ms


Релиз от:



   Похожие торренты   Торрент   Размер 
В этой теме нет новых непрочитанных сообщений. Берегите мужчин (1982) DVDRip

16 | 2

741.52 МБ

В этой теме нет новых непрочитанных сообщений. Берегите мужчин (1982) DVDRip

75 | 18

1.09 ГБ

В этой теме нет новых непрочитанных сообщений. Берегите женщин! (1981) DVDRip-AVC

140 | 4

1.46 ГБ

В этой теме нет новых непрочитанных сообщений. Берегите женщин! (1981) DVDRip

243 | 20

1.94 ГБ

В этой теме нет новых непрочитанных сообщений. Берегите женщин (1981) DVDRip-AVC от ExKinoRay

304 | 15

2.55 ГБ

В этой теме нет новых непрочитанных сообщений. Берегите женщин (1981) DVDRip от Alekxandr48

75 | 10

1.37 ГБ

В этой теме нет новых непрочитанных сообщений. Берегите глаза! / Attention les yeux! (1975) DVDRip-AVC | P

1735 | 350

1.45 ГБ




Вы не можете начинать темы
Вы не можете отвечать на сообщения
Вы не можете редактировать свои сообщения
Вы не можете удалять свои сообщения
Вы не можете добавлять вложения

Перейти:  
Для Мосгорсуда, Роскомнадзора и рекламодателей: mosgorsud-torrent[собачка]yandex.ru
 Вход
ppkBB3cker v.2 © 2008-2014 @ PPK
[ Time : 0.057s | 15 Queries | GZIP : Off ]

Торрент трекер RUTOR.IN, Не можете зайти на rutor.org? Какой новый адрес рутор? Какое зеркало рутор? Не работает rutor.org и зеркала? Тогда наш торрент специально для вас. Rutor.in неофициальное зеркало rutor. В случае если у Вас заблокирован rutor или вдруг Вы не можете на него зайти, то Вы без труда сможете скачать бесплатно и без рекламы последние новинки кино, игр, сериалов и прочего у нас, на Rutor.in. Не нужно использовать прокси, чтобы зайти на рутор, достаточно воспользоваться нашим ресурсом. Все новые фильмы, игры, сериалы, книги и музыка за 2013 и 2014 годы через торрент бесплатно. Скачивайте фильмы в хорошем качестве, игры для пк, xbox, playstation без регистрации. У нас вы найдете новые Зарубежные сериалы и Русские сериалы 2013, 2014, 2015 годов. Оставайтесь с нами, качайте любимые фильмы, игры, сериалы, книги и музыку.
cron