img image001 image001 image001 image001 image001 image001 image001 image001 image001 image001 image001 image001 image001 image001 image001

Planets Sun Sun Sun
Статистика раздачи
Автор: PriZraK | Размер: 1.46 ГБ | Добавлен: 02 авг 2016
Раздают: 82    Качают: 2
Скачать торрент
Скачать торрент
Описание торрента

СообщениеДобавлено: 02 авг 2016 


Информация о фильме
Название: Пираты ХХ века
Год выхода: 1979
Жанр: Боевик
Режиссер: Борис Дуров
В ролях: Николай Ерёменко мл., Пётр Вельяминов, Талгат Нигматулин, Рейно Арен, Дилором Камбарова, Наталья Хорохорина, Джигангир Шахмурадов, Юрий Кутырев, Тадеуш Касьянов, Майя Эглите, Виктор Жиганов, Георгий Мартиросян, Леонид Трутнев, Владимир Епископосян, Лола Бадалова, Нартай Бегалин, Геннадий Четвериков, Яхье Файзуллаев, Олег Федулов, Виктор Гордеев, Игорь Кашинцев, Игорь Класс, Юрий Комаров, Сергей Кучков, Павел Ремезов, Владимир Жариков, Владимир Никитин, Таттыбюбю Турсунбаева, Владимир Карпичев
О фильме: В основе этого приключенческого фильма — реальная история. Советский сухогрузный корабль перевозил большой груз опиума для фармакологической промышленности. Современные пираты, охотившиеся за ценным грузом, коварством завладели кораблем и экипажем. Чтобы не осталось свидетелей этого разбойного нападения, пираты попытались уничтожить всю команду корабля. В океанских просторах разыгралась напряженная борьба между горсткой советских моряков и современными разбойниками, не знающими пощады.

Страна: СССР, Киностудия им. М. Горького
Продолжительность: 01:19:53
Перевод: Не требуется
Файл
Формат: AVI
Качество: HDTVRip
Видео: XviD, 720x320 (2.25:1), 25.000 fps, 2152 Kbps (0.374 bit/pixel)
Звук: AC3, 48.0 KHz, 6 ch, 448 kbps
Субтитры: Нет
General
Complete name : Piraty.XX.Veka.1979.XviD.HDTVRip.1.45.by.GeneralFilm.avi
Format : AVI
Format/Info : Audio Video Interleave
File size : 1.46 GiB
Duration : 1h 19mn
Overall bit rate : 2 609 Kbps
Writing application : VirtualDubMod 1.5.10.3 | www.virtualdub-fr.org || (build 2550/release)
Writing library : VirtualDubMod build 2550/release
Video
ID : 0
Format : MPEG-4 Visual
Format profile : Advanced Simple@L5
Format settings, BVOP : 1
Format settings, QPel : No
Format settings, GMC : No warppoints
Format settings, Matrix : Custom
Codec ID : XVID
Codec ID/Hint : XviD
Duration : 1h 19mn
Bit rate : 2 152 Kbps
Width : 720 pixels
Height : 320 pixels
Display aspect ratio : 2.25:1
Frame rate : 25.000 fps
Color space : YUV
Chroma subsampling : 4:2:0
Bit depth : 8 bits
Scan type : Progressive
Compression mode : Lossy
Bits/(Pixel*Frame) : 0.374
Stream size : 1.20 GiB (82%)
Writing library : XviD 73
Audio
ID : 1
Format : AC-3
Format/Info : Audio Coding 3
Mode extension : CM (complete main)
Format settings, Endianness : Big
Codec ID : 2000
Duration : 1h 19mn
Bit rate mode : Constant
Bit rate : 448 Kbps
Channel(s) : 6 channels
Channel positions : Front: L C R, Side: L R, LFE
Sampling rate : 48.0 KHz
Frame rate : 31.250 fps (1536 spf)
Compression mode : Lossy
Stream size : 256 MiB (17%)
Alignment : Split accross interleaves
Interleave, duration : 40 ms (1.00 video frame)
Interleave, preload duratio : 500 ms








Релиз от:



   Похожие торренты   Торрент   Размер 
В этой теме нет новых непрочитанных сообщений. Пираты ХХ века (1979) HDTVRip от GeneralFilm

32 | 4

744.92 МБ

В этой теме нет новых непрочитанных сообщений. Пираты ХХ века (1979) HDTVRip

189 | 25

1.37 ГБ

В этой теме нет новых непрочитанных сообщений. Пираты ХХ века (1979) HDTVRip-AVC от ExKinoRay

150 | 21

3.41 ГБ

В этой теме нет новых непрочитанных сообщений. Пираты ХХ века (1979) HDTVRip 720p

595 | 25

3.06 ГБ

В этой теме нет новых непрочитанных сообщений. Пираты ХХ века (1979) DVD9

21 | 6

7.17 ГБ

В этой теме нет новых непрочитанных сообщений. Пираты ХХ века (1979) DVDRip

7 | 11

1.37 ГБ

В этой теме нет новых непрочитанных сообщений. Пираты ХХ века (1979) DVDRip

10 | 82

1.37 ГБ




Вы не можете начинать темы
Вы не можете отвечать на сообщения
Вы не можете редактировать свои сообщения
Вы не можете удалять свои сообщения
Вы не можете добавлять вложения

Перейти:  
Для Мосгорсуда, Роскомнадзора и рекламодателей: mosgorsud-torrent[собачка]yandex.ru
 Вход
ppkBB3cker v.2 © 2008-2014 @ PPK
[ Time : 0.022s | 17 Queries | GZIP : Off ]

Торрент трекер RUTOR.IN, Не можете зайти на rutor.org? Какой новый адрес рутор? Какое зеркало рутор? Не работает rutor.org и зеркала? Тогда наш торрент специально для вас. Rutor.in неофициальное зеркало rutor. В случае если у Вас заблокирован rutor или вдруг Вы не можете на него зайти, то Вы без труда сможете скачать бесплатно и без рекламы последние новинки кино, игр, сериалов и прочего у нас, на Rutor.in. Не нужно использовать прокси, чтобы зайти на рутор, достаточно воспользоваться нашим ресурсом. Все новые фильмы, игры, сериалы, книги и музыка за 2013 и 2014 годы через торрент бесплатно. Скачивайте фильмы в хорошем качестве, игры для пк, xbox, playstation без регистрации. У нас вы найдете новые Зарубежные сериалы и Русские сериалы 2013, 2014, 2015 годов. Оставайтесь с нами, качайте любимые фильмы, игры, сериалы, книги и музыку.