img image001 image001 image001 image001 image001 image001 image001 image001 image001 image001 image001 image001 image001 image001 image001

Planets Sun Sun Sun
Статистика раздачи
Автор: Nickolas3434 | Размер: 744.22 МБ | Добавлен: 08 авг 2016
Раздают: 8    Качают: 3
Скачать торрент
Скачать торрент
Описание торрента

СообщениеДобавлено: 08 авг 2016 

Страна: СССР
Производство: Одесская киностудия
Жанр: комедия
Год выпуска: 1955
Продолжительность: 01:23:11
Перевод: Не требуется
Cубтитры: нет
Оригинальная аудиодорожка: русский
Режиссер: Евгений Иванов-Барков, Зиновия Маркина
В ролях:
Тамара Кокова, Елена Муратова, Нодар Шашик-оглы, Хусейн Товкуев, Николай Волков (старший), Варвара Каргинова, Али Тухужев, Азрет Тхазаплижев, Мухамед Тубаев...
Полный список актёров
Описание:
В одном из колхозов Кабарды группа молодежи во главе с джигитом Эльдаром Абуковым организует конно-спортивный клуб. Но Исмель Шарданов смеется над научной системой тренировок своего друга Эльдара. Тогда Эльдар вызывает его на соревнование. Победитель должен получить "шарф любимой" - традиционный приз таких состязаний...





Источник: DVB
Качество видео: SATRip
Формат видео: AVI
Видео: 640x480 (4:3), 25 fps, XviD ~ 1113 kbps avg, 0.145 bit/pixel
Аудио: 48 kHz, MP3 2.0, 128 kbps
Раздача от:
Общее
Полное имя : Sharf.lyubimoy.1955.DVDRip-745_[New-team]_by_AVP_Studio.avi
Формат : AVI
Формат/Информация : Audio Video Interleave
Размер файла : 744 Мбайт
Продолжительность : 1 ч. 23 м.
Общий поток : 1251 Кбит/сек
Программа кодирования : VirtualDubModRus 1.5.10.2 (build 2542/release)
Библиотека кодирования : VirtualDubMod build 2542/release
Видео
Идентификатор : 0
Формат : MPEG-4 Visual
Профиль формата : Advanced Simple@L5
Параметр BVOP формата : 1
Параметр QPel формата : Нет
Параметр GMC формата : Без точки перехода
Параметр матрицы формата : Выборочная
Идентификатор кодека : XVID
Идентификатор кодека/Подсказка : XviD
Продолжительность : 1 ч. 23 м.
Битрейт : 1113 Кбит/сек
Ширина : 640 пикселей
Высота : 480 пикселей
Соотношение сторон : 4:3
Частота кадров : 25,000 кадров/сек
Цветовое пространство : YUV
Субдискретизация насыщенности : 4:2:0
Битовая глубина : 8 бит
Тип развёртки : Прогрессивная
Метод сжатия : С потерями
Бит/(Пиксели*Кадры) : 0.145
Размер потока : 662 Мбайт (89%)
Библиотека кодирования : XviD 1.2.1 (UTC 2008-12-04)
Аудио
Идентификатор : 1
Формат : MPEG Audio
Версия формата : Version 1
Профиль формата : Layer 3
Идентификатор кодека : 55
Идентификатор кодека/Подсказка : MP3
Продолжительность : 1 ч. 23 м.
Вид битрейта : Постоянный
Битрейт : 128 Кбит/сек
Каналы : 2 канала
Частота : 48,0 КГц
Метод сжатия : С потерями
Размер потока : 76,2 Мбайт (10%)
Выравнивание : Соединение по промежуткам
Продолжительность промежутка : 40 мс. (1,00 видеокадр)
Время предзагрузки промежутка : 504 м





   Похожие торренты   Торрент   Размер 
В этой теме нет новых непрочитанных сообщений. Шарф любимой (1955) DVDRip от New-Team

5 | 2

1.09 ГБ

В этой теме нет новых непрочитанных сообщений. Шарф любимой (1955) DVDRip-AVC от New-Team

11 | 1

1.09 ГБ

В этой теме нет новых непрочитанных сообщений. Мексиканец (1955) DVDRip от New-Team

12 | 1

743.75 МБ

В этой теме нет новых непрочитанных сообщений. Мать (1955) DVDRip от New-Team

5 | 2

1.09 ГБ

В этой теме нет новых непрочитанных сообщений. Мать (1955) DVDRip от New-Team

9 | 3

1.09 ГБ

В этой теме нет новых непрочитанных сообщений. Мать (1955) DVDRip от New-Team

2 | 12

743.77 МБ

В этой теме нет новых непрочитанных сообщений. Нестерка (1955) DVDRip-AVC от New-Team

20 | 1

1.46 ГБ




Вы не можете начинать темы
Вы не можете отвечать на сообщения
Вы не можете редактировать свои сообщения
Вы не можете удалять свои сообщения
Вы не можете добавлять вложения

Перейти:  
Для Мосгорсуда, Роскомнадзора и рекламодателей: mosgorsud-torrent[собачка]yandex.ru
 Вход
ppkBB3cker v.2 © 2008-2014 @ PPK
[ Time : 0.026s | 17 Queries | GZIP : Off ]

cron