img image001 image001 image001 image001 image001 image001 image001 image001 image001 image001 image001 image001 image001 image001 image001

Planets Sun Sun Sun
Статистика раздачи
Автор: Nickolas3434 | Размер: 1.09 ГБ | Добавлен: 08 авг 2016
Раздают: 11    Качают: 2
Скачать торрент
Скачать торрент
Описание торрента

СообщениеДобавлено: 08 авг 2016 

Страна: СССР
Производство: Одесская киностудия
Жанр: комедия
Год выпуска: 1955
Продолжительность: 01:23:11
Перевод: Не требуется
Cубтитры: нет
Оригинальная аудиодорожка: русский
Режиссер: Евгений Иванов-Барков, Зиновия Маркина
В ролях:
Тамара Кокова, Елена Муратова, Нодар Шашик-оглы, Хусейн Товкуев, Николай Волков (старший), Варвара Каргинова, Али Тухужев, Азрет Тхазаплижев, Мухамед Тубаев...
Полный список актёров
Описание:
В одном из колхозов Кабарды группа молодежи во главе с джигитом Эльдаром Абуковым организует конно-спортивный клуб. Но Исмель Шарданов смеется над научной системой тренировок своего друга Эльдара. Тогда Эльдар вызывает его на соревнование. Победитель должен получить "шарф любимой" - традиционный приз таких состязаний...





Источник: DVB
Качество видео: SATRip-AVC
Формат видео: MKV
Видео: 688->760x570 (4:3), 25 fps, H264 ~ 1678 kbps avg, 0.171 bit/pixel
Аудио: 48 kHz, Dolby Digital AC3 2.0, 192 kbps
Раздача от:
Общее
Полное имя : Sharf.lyubimoy.1955.DVDRip-AVC_[New-team]_by_AVP_Studio.mkv
Формат : Matroska
Версия формата : Version 4 / Version 2
Размер файла : 1,09 Гбайт
Продолжительность : 1 ч. 23 м.
Общий поток : 1871 Кбит/сек
Дата кодирования : UTC 2016-08-07 12:03:08
Программа кодирования : mkvmerge v9.3.1 ('Mask Machine') 64bit
Библиотека кодирования : libebml v1.3.4 + libmatroska v1.4.5
Видео
Идентификатор : 1
Формат : AVC
Формат/Информация : Advanced Video Codec
Профиль формата : High@L4.1
Параметр CABAC формата : Да
Параметр ReFrames формата : 10 кадров
Идентификатор кодека : V_MPEG4/ISO/AVC
Продолжительность : 1 ч. 23 м.
Битрейт : 1678 Кбит/сек
Ширина : 688 пикселей
Высота : 570 пикселей
Соотношение сторон : 4:3
Режим частоты кадров : Постоянный
Частота кадров : 25,000 кадров/сек
Цветовое пространство : YUV
Субдискретизация насыщенности : 4:2:0
Битовая глубина : 8 бит
Тип развёртки : Прогрессивная
Бит/(Пиксели*Кадры) : 0.171
Размер потока : 998 Мбайт (90%)
Заголовок : Шарф любимой (1955) источник DVD R5
Язык : Russian
Default : Да
Forced : Нет
Аудио
Идентификатор : 2
Формат : AC-3
Формат/Информация : Audio Coding 3
Расширение режима : CM (complete main)
Параметр Endianness формата : Big
Идентификатор кодека : A_AC3
Продолжительность : 1 ч. 23 м.
Вид битрейта : Постоянный
Битрейт : 192 Кбит/сек
Каналы : 2 канала
Расположение каналов : Front: L R
Частота : 48,0 КГц
Частота кадров : 31,250 кадров/сек (1536 spf)
Метод сжатия : С потерями
Задержка видео : 16 мс.
Размер потока : 114 Мбайт (10%)
Заголовок : Шарф любимой (1955) источник DVD R5
Язык : Russian
Default : Да
Forced : Нет





   Похожие торренты   Торрент   Размер 
В этой теме нет новых непрочитанных сообщений. Шарф любимой (1955) DVDRip от New-Team

5 | 2

1.09 ГБ

В этой теме нет новых непрочитанных сообщений. Шарф любимой (1955) DVDRip от New-Team

8 | 3

744.22 МБ

В этой теме нет новых непрочитанных сообщений. Мать (1955) DVDRip от New-Team

5 | 2

1.09 ГБ

В этой теме нет новых непрочитанных сообщений. Нестерка (1955) DVDRip-AVC от New-Team

21 | 1

1.46 ГБ

В этой теме нет новых непрочитанных сообщений. Нестерка (1955) DVDRip от New-Team

15 | 1

745.12 МБ

В этой теме нет новых непрочитанных сообщений. Нестерка (1955) DVDRip от New-Team

4 | 2

1.46 ГБ

В этой теме нет новых непрочитанных сообщений. Мать (1955) DVDRip от New-Team

2 | 5

743.77 МБ




Вы не можете начинать темы
Вы не можете отвечать на сообщения
Вы не можете редактировать свои сообщения
Вы не можете удалять свои сообщения
Вы не можете добавлять вложения

Перейти:  
Для Мосгорсуда, Роскомнадзора и рекламодателей: mosgorsud-torrent[собачка]yandex.ru
 Вход
ppkBB3cker v.2 © 2008-2014 @ PPK
[ Time : 0.066s | 17 Queries | GZIP : Off ]

Торрент трекер RUTOR.IN, Не можете зайти на rutor.org? Какой новый адрес рутор? Какое зеркало рутор? Не работает rutor.org и зеркала? Тогда наш торрент специально для вас. Rutor.in неофициальное зеркало rutor. В случае если у Вас заблокирован rutor или вдруг Вы не можете на него зайти, то Вы без труда сможете скачать бесплатно и без рекламы последние новинки кино, игр, сериалов и прочего у нас, на Rutor.in. Не нужно использовать прокси, чтобы зайти на рутор, достаточно воспользоваться нашим ресурсом. Все новые фильмы, игры, сериалы, книги и музыка за 2013 и 2014 годы через торрент бесплатно. Скачивайте фильмы в хорошем качестве, игры для пк, xbox, playstation без регистрации. У нас вы найдете новые Зарубежные сериалы и Русские сериалы 2013, 2014, 2015 годов. Оставайтесь с нами, качайте любимые фильмы, игры, сериалы, книги и музыку.
cron