img image001 image001 image001 image001 image001 image001 image001 image001 image001 image001 image001 image001 image001 image001 image001

Planets Sun Sun Sun
Статистика раздачи
Автор: PriZraK | Размер: 1.09 ГБ | Добавлен: 11 авг 2016
Раздают: 13    Качают: 5
Скачать торрент
Скачать торрент
Описание торрента

СообщениеДобавлено: 11 авг 2016 

Страна: Россия
Производство: ПЦ "Пирамида" (ООО "Максимус")
Жанр: драма
Год выпуска: 2008
Продолжительность: 02:04:05
Перевод: Не требуется
Cубтитры: нет
Оригинальная аудиодорожка: русский
Режиссер: Сергей Крутин
В ролях:
Юрий Степанов, Ярослав Жалнин, Валерия Ходос, Полина Кутепова, Георгий Дрозд, Сергей Радченко (II), Евгений Шах, Анатолий Зиновенко, Евгений Ефремов (II), Сергей Сипливый...
Полный список актёров
Описание:
Действие фильма происходит в 60-е годы прошлого века, в заштатном провинциальном городке. Иван – передовик, токарь на заводе, один растит сына Лешку. В семье возникают проблемы: у любимой женщины Ивана огромная недостача, ей грозит тюрьма. А Лешку, на глазах любимой девушки, унизили хулиганы. Батя находит нестандартный выход из этих ситуаций: он сам делает пистолет (чтобы Лешка отомстил хулиганам), потом вместе с сыном идет грабить кафе, чтобы помочь Маше покрыть недостачу. Постепенно Лешка входит во вкус, ему нравится власть над людьми, он совершает первое убийство. Вдруг Иван понимает, что он своими руками вырастил убийцу…





Источник: DVD5 R5
Качество видео: DVDRip
Формат видео: AVI
Видео: 640x352 (16:9), 25 fps, XviD ~ 1120 kbps avg, 0.199 bit/pixel
Аудио: 48 kHz, MP3 2.0, 128 kbps
Раздача от:
Общее
Полное имя : V.Parizh!2008.DVDRip-1,09_[New-team]_by_AVP_Studio.avi
Формат : AVI
Формат/Информация : Audio Video Interleave
Размер файла : 1,09 Гбайт
Продолжительность : 2 ч. 4 м.
Общий поток : 1257 Кбит/сек
Программа кодирования : VirtualDubMod 1.5.10.3 | www.virtualdub-fr.org || (build 2550/release)
Библиотека кодирования : VirtualDubMod build 2550/release
Видео
Идентификатор : 0
Формат : MPEG-4 Visual
Профиль формата : Advanced Simple@L5
Параметр BVOP формата : 1
Параметр QPel формата : Нет
Параметр GMC формата : Без точки перехода
Параметр матрицы формата : Выборочная
Идентификатор кодека : XVID
Идентификатор кодека/Подсказка : XviD
Продолжительность : 2 ч. 4 м.
Битрейт : 1120 Кбит/сек
Ширина : 640 пикселей
Высота : 352 пикселя
Соотношение сторон : 16:9
Частота кадров : 25,000 кадров/сек
Цветовое пространство : YUV
Субдискретизация насыщенности : 4:2:0
Битовая глубина : 8 бит
Тип развёртки : Прогрессивная
Метод сжатия : С потерями
Бит/(Пиксели*Кадры) : 0.199
Размер потока : 994 Мбайт (89%)
Библиотека кодирования : XviD 1.2.1 (UTC 2008-12-04)
Аудио
Идентификатор : 1
Формат : MPEG Audio
Версия формата : Version 1
Профиль формата : Layer 3
Идентификатор кодека : 55
Идентификатор кодека/Подсказка : MP3
Продолжительность : 2 ч. 4 м.
Вид битрейта : Постоянный
Битрейт : 128 Кбит/сек
Каналы : 2 канала
Частота : 48,0 КГц
Метод сжатия : С потерями
Размер потока : 114 Мбайт (10%)
Выравнивание : Соединение по промежуткам
Продолжительность промежутка : 40 мс. (1,00 видеокадр)
Время предзагрузки промежутка : 504 мс.
Библиотека кодирования : LAME3.99r
Настройки программы : -m s -V 4 -q 2 -lowpass 17 -b 128





   Похожие торренты   Торрент   Размер 
В этой теме нет новых непрочитанных сообщений. В Париж! (2008) DVDRip-AVC от New-Team

214 | 2

1.46 ГБ

В этой теме нет новых непрочитанных сообщений. В Париж! (2008) DVDRip от New-Team

78 | 7

1.46 ГБ

В этой теме нет новых непрочитанных сообщений. Путешествие по Европе. Выпуск №1: Париж (2008) DVDRip-AVC от New-Team

72 | 1

1.46 ГБ

В этой теме нет новых непрочитанных сообщений. Путешествие по Европе. Выпуск №1: Париж (2008) DVDRip от New-Team

4 | 1

743.03 МБ

В этой теме нет новых непрочитанных сообщений. Путешествие по Европе. Выпуск №1: Париж (2008) DVDRip от New-Team

3 | 1

1.64 ГБ

В этой теме нет новых непрочитанных сообщений. Париж! Париж! / Faubourg 36 (2008) DVDRip

0 | 1

1.46 ГБ

В этой теме нет новых непрочитанных сообщений. Париж! Париж! / Faubourg 36 (2008) DVDRip

3 | 7

702.68 МБ




Вы не можете начинать темы
Вы не можете отвечать на сообщения
Вы не можете редактировать свои сообщения
Вы не можете удалять свои сообщения
Вы не можете добавлять вложения

Перейти:  
Для Мосгорсуда, Роскомнадзора и рекламодателей: mosgorsud-torrent[собачка]yandex.ru
 Вход
ppkBB3cker v.2 © 2008-2014 @ PPK
[ Time : 0.045s | 16 Queries | GZIP : Off ]

cron