img image001 image001 image001 image001 image001 image001 image001 image001 image001 image001 image001 image001 image001 image001 image001

Planets Sun Sun Sun
Статистика раздачи
Автор: PriZraK | Размер: 1.11 ГБ | Добавлен: 11 авг 2016
Раздают: 6    Качают: 1
Скачать торрент
Скачать торрент
Описание торрента

СообщениеДобавлено: 11 авг 2016 


Информация о фильме
Оригинальное название: Московская любовь
Год выпуска: 1991
Жанр: Мелодрама, драма
Режиссер: Валерий Курыкин
В ролях: Евгений Парамонов, Денис Карасёв, Лидия Вележева, Олег Рудюк, Елена Аржаник, Александр Гловяк, Леван Мсхиладзе
О фильме: Два молодых бизнесмена разрабатывают рискованную финансовую операцию. Удача близка, но каждый из них оказывается перед выбором между деньгами и преданными друзьями, любимой женщиной и выгодными компаньонами. Авантюрная мелодрама из жизни "треугольников": бедняк, богач (директор банка) и юная, но умудренная житейским опытом Катя...

Выпущено: СССР, "Елена", Коммерческий банк "Развитие", Союз (Мосфильм)
Продолжительность: 01:16:27
Язык: Русский
Файл
Качество: SATRip (AVC)
Видео: MPEG-4 AVC, 1877 Кбит/с, 696x562@742x562
Аудио: AC3, 2 ch, 192 Кбит/с
General
Unique ID : 184143876745549665803555893429832850093 (0x8A88D214CE710036AB356128DB751AAD)
Complete name : E:Moskov.love.1991.SATrip.AVC.ExKinoRay.mkv
Format : Matroska
Format version : Version 2
File size : 1.11 GiB
Duration : 1 h 16 min
Overall bit rate : 2 071 kb/s
Movie name : Moskov love 1991 from ExKinoRay
Encoded date : UTC 2016-08-09 23:31:14
Writing application : mkvmerge v7.6.0 ('Garden of Dreams') 32bit built on Feb 11 2015 00:18:47
Writing library : libebml v1.3.1 + libmatroska v1.4.2
Video
ID : 1
Format : AVC
Format/Info : Advanced Video Codec
Format profile : High@L4.1
Format settings, CABAC : Yes
Format settings, ReFrames : 14 frames
Codec ID : V_MPEG4/ISO/AVC
Duration : 1 h 16 min
Bit rate : 1 877 kb/s
Width : 696 pixels
Height : 562 pixels
Display aspect ratio : 4:3
Original display aspect rat : 4:3
Frame rate mode : Constant
Frame rate : 25.000 FPS
Color space : YUV
Chroma subsampling : 4:2:0
Bit depth : 8 bits
Scan type : Progressive
Bits/(Pixel*Frame) : 0.192
Stream size : 1 005 MiB (89%)
Title : Enigma
Writing library : x264 core 144 r2525 40bb568
Encoding settings : cabac=1 / ref=14 / deblock=1:-2:-2 / analyse=0x3:0x113 / me=umh / subme=10 / psy=1 / psy_rd=1.05:0.10 / mixed_ref=1 / me_range=32 / chroma_me=1 / trellis=2 / 8x8dct=1 / cqm=0 / deadzone=21,11 / fast_pskip=0 / chroma_qp_offset=-3 / threads=12 / lookahead_threads=2 / sliced_threads=0 / nr=0 / decimate=0 / interlaced=0 / bluray_compat=0 / constrained_intra=0 / bframes=9 / b_pyramid=2 / b_adapt=2 / b_bias=0 / direct=3 / weightb=1 / open_gop=0 / weightp=2 / keyint=250 / keyint_min=25 / scenecut=40 / intra_refresh=0 / rc_lookahead=60 / rc=2pass / mbtree=1 / bitrate=1877 / ratetol=1.0 / qcomp=0.60 / qpmin=0 / qpmax=51 / qpstep=4 / cplxblur=20.0 / qblur=0.5 / ip_ratio=1.40 / aq=1:1.00
Language : English
Default : Yes
Forced : No
Audio
ID : 2
Format : AC-3
Format/Info : Audio Coding 3
Mode extension : CM (complete main)
Format settings, Endianness : Big
Codec ID : A_AC3
Duration : 1 h 16 min
Bit rate mode : Constant
Bit rate : 192 kb/s
Channel(s) : 2 channels
Channel positions : Front: L R
Sampling rate : 48.0 kHz
Frame rate : 31.250 FPS (1536 spf)
Compression mode : Lossy
Stream size : 105 MiB (9%)
Language : Russian
Default : Yes
Forced : No


Релиз от:
Автор релиза:



   Похожие торренты   Торрент   Размер 
В этой теме нет новых непрочитанных сообщений. Московская любовь (1991) SATRip от ExKinoRay

15 | 2

1.09 ГБ

В этой теме нет новых непрочитанных сообщений. Любовь (1991) DVDRip-AVC от ExKinoRay

72 | 18

1.8 ГБ

В этой теме нет новых непрочитанных сообщений. Московская борзая [01-16 из 20] (2015) WEB-DLRip-AVC от ExKinoRay

0 | 0

10.01 ГБ

В этой теме нет новых непрочитанных сообщений. Московская борзая [01-15 из 20] (2015) WEB-DLRip-AVC от ExKinoRay

4 | 10

9.38 ГБ

В этой теме нет новых непрочитанных сообщений. Московская борзая [01-18 из 20] (2015) WEB-DLRip-AVC от ExKinoRay

2 | 0

11.24 ГБ

В этой теме нет новых непрочитанных сообщений. Московская борзая [01-20 из 20] (2015) WEB-DLRip-AVC от ExKinoRay

14 | 4

12.51 ГБ

В этой теме нет новых непрочитанных сообщений. Московская борзая [01-13 из 20] (2015) WEB-DLRip-AVC от ExKinoRay

0 | 0

8.13 ГБ




Вы не можете начинать темы
Вы не можете отвечать на сообщения
Вы не можете редактировать свои сообщения
Вы не можете удалять свои сообщения
Вы не можете добавлять вложения

Перейти:  
Для Мосгорсуда, Роскомнадзора и рекламодателей: mosgorsud-torrent[собачка]yandex.ru
 Вход
ppkBB3cker v.2 © 2008-2014 @ PPK
[ Time : 0.051s | 15 Queries | GZIP : Off ]

cron