img image001 image001 image001 image001 image001 image001 image001 image001 image001 image001 image001 image001 image001 image001 image001

Planets Sun Sun Sun
Статистика раздачи
Автор: PriZraK | Размер: 1.18 ГБ | Добавлен: 12 авг 2016
Раздают: 96    Качают: 7
Скачать торрент
Скачать торрент
Описание торрента

СообщениеДобавлено: 12 авг 2016 

Название: Волчья кровь
Россия 1995 г.
Жанр: боевик, история, приключения, военный
Режиссер: Николай Стамбула
В ролях: Евгений Сидихин, Александр Казаков, Регимантас Адомайтис, Любомирас Лауцявичюс, Сергей Гармаш, Владимир Кашпур, Наталья Егорова, Алина Таркинская, Виктор Степанов, Елена Павличенко, Виктор Авилов, Михаил Жигалов, Ирбек Персаев, Евгений Дегтяренко
Особый отряд по борьбе с бандитизмом под командованием Родиона Добрых действует в страшное время. Страна расколота. Непонятно кто «за красных», а кто — «за белых». Бандиты с мародерами регулярно совершают вылазки из лесов, грабя и убивая жителей сел и деревень. Люди запуганы и запутаны.
Попытки отряда Родиона Добрых навести порядок в родных местах, сталкиваются с безумной жестокостью этой кровавой войны, Бандиты повесили его отца, и в душе не остается места ни для чего, кроме планов мести. Всепоглощающей мести, которая разъедает душу комиссара изнутри, заставляя бороться с врагами до последней капли крови…

Качество: DVDRip (AVC)
Видео: MPEG-4 AVC, 1785 Кбит/с, 704x476@750x476
Аудио: AC3, 2 ch, 224 Кбит/с
Продолжительность: 01:23:53
General
Unique ID : 238105368129607582603209758449883755009 (0xB3216D03D9ECF41FB2D35E0DF5413201)
Complete name : E:Wolfblood.1992.DVDRip.AVC.ExKinoRay.mkv
Format : Matroska
Format version : Version 2
File size : 1.18 GiB
Duration : 1 h 23 min
Overall bit rate : 2 010 kb/s
Movie name : Wolfblood 1992 from ExKinoray
Encoded date : UTC 2016-08-11 03:18:06
Writing application : mkvmerge v7.6.0 ('Garden of Dreams') 32bit built on Feb 11 2015 00:18:47
Writing library : libebml v1.3.1 + libmatroska v1.4.2
Video
ID : 1
Format : AVC
Format/Info : Advanced Video Codec
Format profile : High@L4.1
Format settings, CABAC : Yes
Format settings, ReFrames : 12 frames
Codec ID : V_MPEG4/ISO/AVC
Duration : 1 h 23 min
Bit rate : 1 785 kb/s
Width : 704 pixels
Height : 476 pixels
Display aspect ratio : 16:10
Frame rate mode : Constant
Frame rate : 25.000 FPS
Color space : YUV
Chroma subsampling : 4:2:0
Bit depth : 8 bits
Scan type : Progressive
Bits/(Pixel*Frame) : 0.213
Stream size : 1.02 GiB (87%)
Title : Enigma
Writing library : x264 core 144 r2525 40bb568
Encoding settings : cabac=1 / ref=12 / deblock=1:-2:-2 / analyse=0x3:0x113 / me=umh / subme=10 / psy=1 / psy_rd=1.05:0.10 / mixed_ref=1 / me_range=32 / chroma_me=1 / trellis=2 / 8x8dct=1 / cqm=0 / deadzone=21,11 / fast_pskip=0 / chroma_qp_offset=-3 / threads=12 / lookahead_threads=3 / sliced_threads=0 / nr=0 / decimate=0 / interlaced=0 / bluray_compat=0 / constrained_intra=0 / bframes=10 / b_pyramid=2 / b_adapt=2 / b_bias=0 / direct=3 / weightb=1 / open_gop=0 / weightp=2 / keyint=250 / keyint_min=25 / scenecut=40 / intra_refresh=0 / rc_lookahead=60 / rc=2pass / mbtree=1 / bitrate=1785 / ratetol=1.0 / qcomp=0.65 / qpmin=0 / qpmax=51 / qpstep=4 / cplxblur=20.0 / qblur=0.5 / ip_ratio=1.40 / aq=1:1.00
Language : Russian
Default : Yes
Forced : No
Color range : Limited
Color primaries : BT.601 PAL
Transfer characteristics : BT.470 System B, BT.470 System G
Matrix coefficients : BT.601
Audio
ID : 2
Format : AC-3
Format/Info : Audio Coding 3
Mode extension : CM (complete main)
Format settings, Endianness : Big
Codec ID : A_AC3
Duration : 1 h 23 min
Bit rate mode : Constant
Bit rate : 224 kb/s
Channel(s) : 2 channels
Channel positions : Front: L R
Sampling rate : 48.0 kHz
Frame rate : 31.250 FPS (1536 spf)
Compression mode : Lossy
Stream size : 134 MiB (11%)
Language : Russian
Default : Yes
Forced : No


Релиз от:
Автор релиза:



   Похожие торренты   Торрент   Размер 
В этой теме нет новых непрочитанных сообщений. Волчья кровь (1995) DVDRip

251 | 30

1.37 ГБ

В этой теме нет новых непрочитанных сообщений. Волчья кровь / Wolfblood [S01] (2012) HDRip

50 | 5

4.99 ГБ

В этой теме нет новых непрочитанных сообщений. Волчья кровь / Wolfblood [S01] (2012) PDTVRip | DreamRecords

11 | 3

3.51 ГБ

В этой теме нет новых непрочитанных сообщений. Волчья кровь / Wolfblood [S01] (2012) PDTVRip | DreamRecords

17 | 3

3.51 ГБ

В этой теме нет новых непрочитанных сообщений. Волчья кровь / Wolfblood [S04] (2016) WEBRip | DreamRecords

0 | 0

3.55 ГБ

В этой теме нет новых непрочитанных сообщений. Волчья кровь / Wolfblood [S02] (2013) PDTVRip | DreamRecords

38 | 3

3.41 ГБ

В этой теме нет новых непрочитанных сообщений. Волчья кровь / Wolfblood [03х01] (2014) WEBRip | DreamRecords

77 | 10

293.58 МБ




Вы не можете начинать темы
Вы не можете отвечать на сообщения
Вы не можете редактировать свои сообщения
Вы не можете удалять свои сообщения
Вы не можете добавлять вложения

Перейти:  
Для Мосгорсуда, Роскомнадзора и рекламодателей: mosgorsud-torrent[собачка]yandex.ru
 Вход
ppkBB3cker v.2 © 2008-2014 @ PPK
[ Time : 0.045s | 16 Queries | GZIP : Off ]

cron