img image001 image001 image001 image001 image001 image001 image001 image001 image001 image001 image001 image001 image001 image001 image001

Planets Sun Sun Sun
Статистика раздачи
Автор: PriZraK | Размер: 1.71 ГБ | Добавлен: 14 авг 2016
Раздают: 31    Качают: 3
Скачать торрент
Скачать торрент
Описание торрента

СообщениеДобавлено: 14 авг 2016 

Hазвание: Блокпост
Год выпуска: 1998
Жанр: драма, военный
Продолжительность: 01:31:01
Режиссер: Александр Рогожкин
В ролях: Андрей Краско, Роман Романцов, Кирилл Ульянов, Иван Травяников-Диденко, Денис Кириллов, Егор Томошевский, Денис Моисеев, Юрий Григорьев, Александр Иванов, Анастасия Ражук, Маргарита Бычкова, Зоя Буряк, Сергей Гусинский, Алексей Булдаков, Александр Тютрюмов, Марат (Мурат) Кукан, Владимир Ткаченко, Разиет Кемечева, Хайди Холлинджер, Александр Большаков
Описание: Время действия — 1996 год. Место действия — Северный Кавказ. Территория войны. Хотя на экране войны почти нет. Просто солдатские будни. Просто ежедневный быт одного подразделения российской армии. Просто в каком-то горном ауле была так называемая «зачистка», в ходе которой взорвалась мина, и погиб пацан-калека, и теперь взвод, проводивший «зачистку», отправлен начальством на отдаленный блокпост, чтобы уберечь солдат от мести со стороны жителей того самого горного аула. Парни в военной форме ждут, когда «где-то там» улягутся страсти, а пока спят, едят, курят "травку", по очереди спят с девчонкой, за услуги которой расплачиваются патронами. Патронами, которые, совершив закономерный круговорот, окажутся в стволе снайперской винтовки неуловимого стрелка-одиночки, постоянно и неусыпно наблюдающего за блокпостом…

Качество: DVDRip (AVC)
Видео: MPEG-4 AVC, 2245 Кбит/с, 710x468@756x468
Аудио: AC3, 6 ch, 448 Кбит/с
Язык: Русский
Субтитры: Русские
General
Unique ID : 249266256464812014444436477480497432758 (0xBB86EF4B74434BFBB911B7B063B1C8B6)
Complete name : E:Blokpost.1998.DVDRip.AVC.ExKinoRAy.mkv
Format : Matroska
Format version : Version 2
File size : 1.71 GiB
Duration : 1 h 31 min
Overall bit rate : 2 695 kb/s
Movie name : Блокпост 1998 from ExKinoRay
Encoded date : UTC 2016-08-13 02:30:30
Writing application : mkvmerge v7.6.0 ('Garden of Dreams') 32bit built on Feb 11 2015 00:18:47
Writing library : libebml v1.3.1 + libmatroska v1.4.2
Video
ID : 1
Format : AVC
Format/Info : Advanced Video Codec
Format profile : High@L4.1
Format settings, CABAC : Yes
Format settings, ReFrames : 12 frames
Codec ID : V_MPEG4/ISO/AVC
Duration : 1 h 31 min
Bit rate : 2 245 kb/s
Width : 710 pixels
Height : 468 pixels
Display aspect ratio : 16:10
Frame rate mode : Constant
Frame rate : 25.000 FPS
Color space : YUV
Chroma subsampling : 4:2:0
Bit depth : 8 bits
Scan type : Progressive
Bits/(Pixel*Frame) : 0.270
Stream size : 1.39 GiB (81%)
Title : Enigma
Writing library : x264 core 144 r2525 40bb568
Encoding settings : cabac=1 / ref=12 / deblock=1:-2:-2 / analyse=0x3:0x113 / me=umh / subme=10 / psy=1 / psy_rd=1.00:0.05 / mixed_ref=1 / me_range=32 / chroma_me=1 / trellis=2 / 8x8dct=1 / cqm=0 / deadzone=21,11 / fast_pskip=0 / chroma_qp_offset=-3 / threads=12 / lookahead_threads=3 / sliced_threads=0 / nr=0 / decimate=0 / interlaced=0 / bluray_compat=0 / constrained_intra=0 / bframes=10 / b_pyramid=2 / b_adapt=2 / b_bias=0 / direct=3 / weightb=1 / open_gop=0 / weightp=2 / keyint=250 / keyint_min=25 / scenecut=40 / intra_refresh=0 / rc=2pass / mbtree=0 / bitrate=2245 / ratetol=1.0 / qcomp=0.65 / qpmin=0 / qpmax=51 / qpstep=4 / cplxblur=20.0 / qblur=0.5 / ip_ratio=1.40 / pb_ratio=1.30 / aq=1:1.00
Default : Yes
Forced : No
Color range : Limited
Color primaries : BT.601 PAL
Transfer characteristics : BT.470 System B, BT.470 System G
Matrix coefficients : BT.601
Audio
ID : 2
Format : AC-3
Format/Info : Audio Coding 3
Mode extension : CM (complete main)
Format settings, Endianness : Big
Codec ID : A_AC3
Duration : 1 h 31 min
Bit rate mode : Constant
Bit rate : 448 kb/s
Channel(s) : 6 channels
Channel positions : Front: L C R, Side: L R, LFE
Sampling rate : 48.0 kHz
Frame rate : 31.250 FPS (1536 spf)
Compression mode : Lossy
Delay relative to video : 800 ms
Stream size : 292 MiB (17%)
Language : Russian
Default : Yes
Forced : No
Text
ID : 3
Format : UTF-8
Codec ID : S_TEXT/UTF8
Codec ID/Info : UTF-8 Plain Text
Language : Russian
Default : No
Forced : No


Релиз от:
Автор релиза:



   Похожие торренты   Торрент   Размер 
В этой теме нет новых непрочитанных сообщений. Блокпост (1998) DVDRip

117 | 4

1.46 ГБ

В этой теме нет новых непрочитанных сообщений. Блокпост (1998) DVDRip от Pasha74

159 | 29

1.37 ГБ

В этой теме нет новых непрочитанных сообщений. Блокпост (1998) DVDRip от MediaClub | КПК

22 | 5

410.88 МБ

В этой теме нет новых непрочитанных сообщений. Валерий Воронов - Блокпост Акация (2005) MP3

7 | 0

133.47 МБ

В этой теме нет новых непрочитанных сообщений. Валерий Воронов - Блокпост в Акациях (2005) MP3

4 | 0

80.03 МБ

В этой теме нет новых непрочитанных сообщений. Му-Му (1998) DVDRip от ExKinoRay

20 | 6

1.37 ГБ

В этой теме нет новых непрочитанных сообщений. Классик (1998) DVDRip-AVC от ExKinoRay

318 | 17

1.63 ГБ




Вы не можете начинать темы
Вы не можете отвечать на сообщения
Вы не можете редактировать свои сообщения
Вы не можете удалять свои сообщения
Вы не можете добавлять вложения

Перейти:  
Для Мосгорсуда, Роскомнадзора и рекламодателей: mosgorsud-torrent[собачка]yandex.ru
 Вход
ppkBB3cker v.2 © 2008-2014 @ PPK
[ Time : 0.052s | 18 Queries | GZIP : Off ]

Торрент трекер RUTOR.IN, Не можете зайти на rutor.org? Какой новый адрес рутор? Какое зеркало рутор? Не работает rutor.org и зеркала? Тогда наш торрент специально для вас. Rutor.in неофициальное зеркало rutor. В случае если у Вас заблокирован rutor или вдруг Вы не можете на него зайти, то Вы без труда сможете скачать бесплатно и без рекламы последние новинки кино, игр, сериалов и прочего у нас, на Rutor.in. Не нужно использовать прокси, чтобы зайти на рутор, достаточно воспользоваться нашим ресурсом. Все новые фильмы, игры, сериалы, книги и музыка за 2013 и 2014 годы через торрент бесплатно. Скачивайте фильмы в хорошем качестве, игры для пк, xbox, playstation без регистрации. У нас вы найдете новые Зарубежные сериалы и Русские сериалы 2013, 2014, 2015 годов. Оставайтесь с нами, качайте любимые фильмы, игры, сериалы, книги и музыку.
cron