img image001 image001 image001 image001 image001 image001 image001 image001 image001 image001 image001 image001 image001 image001 image001

Planets Sun Sun Sun
Статистика раздачи
Автор: PriZraK | Размер: 17.37 ГБ | Добавлен: 14 авг 2016
Раздают: 11    Качают: 2
Скачать торрент
Скачать торрент
Описание торрента

СообщениеДобавлено: 14 авг 2016 


Информация о фильме
Название: Иди и смотри
Год выхода: 1985
Жанр: драма, военный
Режиссер: Элем Климов
В ролях: Алексей Кравченко, Ольга Миронова, Любомирас Лауцявичюс, Владас Багдонас, Юри Лумисте, Виктор Лоренц, Казимир Рабецкий, Евгений Тиличеев, Александр Берда, Г. Вельц
О фильме:
Картина основана на документальных фактах и обращается к «Хатынской повести» Адамовича. Авторами выбрано именно то место и те события, которые стали символом народной беды и страдания.
Флера — шестнадцатилетний мальчишка, откопавший среди обрывков колючей проволоки, ржавых пулеметных лент и простреленных касок карабин, и отправившийся в лес к партизанам. В начале фильма он совсем ребенок. В конце, пройдя через ужас карательной акции фашистов, становится взрослым, пугающе взрослым и даже — старым. Война исказила когда-то нежные, детские черты и превратила их в старческие морщины.

Страна: СССР
Студия: Беларусьфильм, Мосфильм
Продолжительность: 02:22:29
Перевод: Оригинальный
Файл
Формат: Matroska
Видео: 962x720 at 23.976 fps, x264@L4.1, ~15500 kbps avg
Аудио#1: Russian: 48 kHz, DTS, 2/0 (L,R) ch, ~1509 kbps avg |Blu-ray JPN|
Аудио#2: Russian: 48 kHz, AC3, 3/2 (L,C,R,l,r) + LFE ch, ~448 kbps avg |DVD|
Субтитры: Russian, English
***Сохранены оригинальные главы.
***Релиз - vedigo.
Фильм снят по мотивам произведений Алеся Адамовича «Хатынская повесть», «Партизаны» и «Каратели».
Лучший фильм по опросу журнала «Советский экран» в 1987 году.
[*]Съёмки сцен фильма проходили в хронологическом порядке.
Общее
Уникальный идентификатор : 224134129397472561046396515711257781092 (0xA89EA9C35190EBB596C4C4B015F9A364)
Полное имя : Come.and.See.1985.BDRip.720p_by_vedigo.mkv
Формат : Matroska
Версия формата : Version 4 / Version 2
Размер файла : 17,4 Гбайт
Продолжительность : 2 ч. 22 м.
Общий поток : 17,5 Мбит/сек
Название фильма : Come.and.See.1985.BDRip.720p_by_vedigo
Дата кодирования : UTC 2016-08-13 22:53:47
Программа кодирования : mkvmerge v9.3.1 ('Mask Machine') 64bit
Библиотека кодирования : libebml v1.3.4 + libmatroska v1.4.5
Видео
Идентификатор : 1
Формат : AVC
Формат/Информация : Advanced Video Codec
Профиль формата : High@L4.1
Параметр CABAC формата : Да
Параметр ReFrames формата : 11 кадров
Идентификатор кодека : V_MPEG4/ISO/AVC
Продолжительность : 2 ч. 22 м.
Битрейт : 15,5 Мбит/сек
Ширина : 962 пикселя
Высота : 720 пикселей
Соотношение сторон : 4:3
Режим частоты кадров : Постоянный
Частота кадров : 23,976 кадра/сек
Цветовое пространство : YUV
Субдискретизация насыщенности : 4:2:0
Битовая глубина : 8 бит
Тип развёртки : Прогрессивная
Бит/(Пиксели*Кадры) : 0.933
Размер потока : 15,1 Гбайт (87%)
Заголовок : Come.and.See.1985.BDRip.720p_by_vedigo
Библиотека кодирования : x264 core 148 r2705 3f5ed56
Настройки программы : cabac=1 / ref=11 / deblock=1:-3:-3 / analyse=0x3:0x133 / me=umh / subme=11 / psy=1 / psy_rd=1.00:0.10 / mixed_ref=1 / me_range=64 / chroma_me=1 / trellis=2 / 8x8dct=1 / cqm=0 / deadzone=21,11 / fast_pskip=0 / chroma_qp_offset=-3 / threads=12 / lookahead_threads=3 / sliced_threads=0 / nr=0 / decimate=1 / interlaced=0 / bluray_compat=0 / constrained_intra=0 / bframes=16 / b_pyramid=2 / b_adapt=2 / b_bias=0 / direct=3 / weightb=1 / open_gop=0 / weightp=2 / keyint=250 / keyint_min=23 / scenecut=40 / intra_refresh=0 / rc_lookahead=40 / rc=2pass / mbtree=0 / bitrate=15500 / ratetol=1.0 / qcomp=0.60 / qpmin=0 / qpmax=69 / qpstep=4 / cplxblur=20.0 / qblur=0.5 / vbv_maxrate=50000 / vbv_bufsize=62500 / nal_hrd=none / filler=0 / ip_ratio=1.40 / pb_ratio=1.30 / aq=1:0.90
Язык : Russian
Default : Да
Forced : Нет
Аудио #1
Идентификатор : 2
Формат : DTS
Формат/Информация : Digital Theater Systems
Режим : 16
Параметр Endianness формата : Big
Идентификатор кодека : A_DTS
Продолжительность : 2 ч. 22 м.
Вид битрейта : Постоянный
Битрейт : 1509 Кбит/сек
Каналы : 2 канала
Расположение каналов : Front: L R
Частота : 48,0 КГц
Битовая глубина : 16 бит
Метод сжатия : С потерями
Размер потока : 1,50 Гбайт (9%)
Заголовок : original @ BD
Язык : Russian
Default : Да
Forced : Нет
Аудио #2
Идентификатор : 3
Формат : AC-3
Формат/Информация : Audio Coding 3
Расширение режима : CM (complete main)
Параметр Endianness формата : Big
Идентификатор кодека : A_AC3
Продолжительность : 2 ч. 22 м.
Вид битрейта : Постоянный
Битрейт : 448 Кбит/сек
Каналы : 6 каналов
Расположение каналов : Front: L C R, Side: L R, LFE
Частота : 48,0 КГц
Метод сжатия : С потерями
Размер потока : 457 Мбайт (3%)
Заголовок : original @ DVD
Язык : Russian
Default : Нет
Forced : Нет
Текст #1
Идентификатор : 4
Формат : UTF-8
Идентификатор кодека : S_TEXT/UTF8
Идентификатор кодека/Информация : UTF-8 Plain Text
Заголовок : Subtitle rus
Язык : Russian
Default : Нет
Forced : Нет
Текст #2
Идентификатор : 5
Формат : UTF-8
Идентификатор кодека : S_TEXT/UTF8
Идентификатор кодека/Информация : UTF-8 Plain Text
Заголовок : Subtitle eng
Язык : English
Default : Нет
Forced : Нет
Меню
00:00:00.000 : :Глава 01
00:10:04.103 : :Глава 01
00:20:01.074 : :Глава 02
00:28:29.124 : :Глава 04
00:39:50.596 : :Глава 05
00:51:40.096 : :Глава 06
01:01:47.995 : :Глава 07
01:09:36.380 : :Глава 08
01:18:59.735 : :Глава 09
01:30:03.481 : :Глава 10
01:40:52.671 : :Глава 11
01:51:02.113 : :Глава 12
01:58:43.825 : :Глава 13
02:11:12.739 : :Глава 14
02:22:54.524 : :Глава 15



   Похожие торренты   Торрент   Размер 
В этой теме нет новых непрочитанных сообщений. Иди и смотри (1985) BDRip от ExKinoRay

92 | 4

2 ГБ

В этой теме нет новых непрочитанных сообщений. Иди и смотри (1985) DVDRip

100 | 14

702.08 МБ

В этой теме нет новых непрочитанных сообщений. Иди и смотри (1985) DVDRip

1 | 2

2.57 ГБ

В этой теме нет новых непрочитанных сообщений. Иди и смотри (1985) DVDRip-AVC

84 | 26

2.16 ГБ

В этой теме нет новых непрочитанных сообщений. Иди и смотри (1985) DVDRip

522 | 50

1.37 ГБ

В этой теме нет новых непрочитанных сообщений. Иди и смотри (1985) DVDRip

1099 | 51

1.95 ГБ

В этой теме нет новых непрочитанных сообщений. Иди и смотри (1985) DVDRip by FREEISLAND

268 | 12

2.93 ГБ




Вы не можете начинать темы
Вы не можете отвечать на сообщения
Вы не можете редактировать свои сообщения
Вы не можете удалять свои сообщения
Вы не можете добавлять вложения

Перейти:  
Для Мосгорсуда, Роскомнадзора и рекламодателей: mosgorsud-torrent[собачка]yandex.ru
 Вход
ppkBB3cker v.2 © 2008-2014 @ PPK
[ Time : 0.194s | 14 Queries | GZIP : Off ]

Торрент трекер RUTOR.IN, Не можете зайти на rutor.org? Какой новый адрес рутор? Какое зеркало рутор? Не работает rutor.org и зеркала? Тогда наш торрент специально для вас. Rutor.in неофициальное зеркало rutor. В случае если у Вас заблокирован rutor или вдруг Вы не можете на него зайти, то Вы без труда сможете скачать бесплатно и без рекламы последние новинки кино, игр, сериалов и прочего у нас, на Rutor.in. Не нужно использовать прокси, чтобы зайти на рутор, достаточно воспользоваться нашим ресурсом. Все новые фильмы, игры, сериалы, книги и музыка за 2013 и 2014 годы через торрент бесплатно. Скачивайте фильмы в хорошем качестве, игры для пк, xbox, playstation без регистрации. У нас вы найдете новые Зарубежные сериалы и Русские сериалы 2013, 2014, 2015 годов. Оставайтесь с нами, качайте любимые фильмы, игры, сериалы, книги и музыку.