img image001 image001 image001 image001 image001 image001 image001 image001 image001 image001 image001 image001 image001 image001 image001

Planets Sun Sun Sun
Статистика раздачи
Автор: PriZraK | Размер: 2.11 ГБ | Добавлен: 14 авг 2016
Раздают: 253    Качают: 8
Скачать торрент
Скачать торрент
Описание торрента

СообщениеДобавлено: 14 авг 2016 

Информация о фильме
Название: Белый мавр, или Интимные истории о моих соседях
Год выхода: 2012
Жанр: драма, комедия
Режиссер: Дмитрий Фикс
В ролях: Вячеслав Разбегаев, Галина Петрова, Андрей Соколов, Сергей Астахов, Александр Галибин, Екатерина Стриженова, Эвклид Кюрдзидис, Жанна Эппле, Игорь Верник, Олеся Железняк, Анна Якунина, Евгения Морозова, Полина Райкина
Слоган: «Им есть что скрывать»
О фильме: Это ироничная, местами откровенно смешная и в тоже время грустная история о буднях так называемого «верхнего среднего класса» — воспетой в Америке Вуди Алленом, но пока еще весьма малочисленной в нашей стране прослойке состоятельных граждан. Помимо завидного достатка, всех этих погрязших в экзистенциальных сомнениях и банальных адюльтерах бизнесменов, кинозвезд, модных режиссеров, хозяев стоматологических клиник и их прекрасных жен объединяет еще и звонкое пионерское прошлое, преодолеть которое подчас оказывается гораздо сложнее, чем отгрохать особняк на Новой Риге…

Страна: Россия / Мотор Фильм Студия
Продолжительность: 01:36:18
Перевод: Оригинал
Файл
Качество: WEB-DL 720p
Формат: MKV
Видео: AVC, 2944 Kb/s, 1280x696
Звук: AC3, 192 Kb/s (2ch)
Субтитры: нет

Релиз от:
Format : Matroska
Format version : Version 4 / Version 2
File size : 2.11 GiB
Duration : 1 h 36 min
Overall bit rate : 3 138 kb/s
Movie name : Rip by basma4i
Encoded date : UTC 2016-08-14 08:13:17
Writing application : mkvmerge v9.3.1 ('Mask Machine') 64bit
Writing library : libebml v1.3.4 + libmatroska v1.4.5 / Lavf56.25.101
Video
ID : 1
Format : AVC
Format/Info : Advanced Video Codec
Format profile : High@L4.1
Format settings, CABAC : Yes
Format settings, ReFrames : 1 frame
Codec ID : V_MPEG4/ISO/AVC
Duration : 1 h 36 min
Bit rate : 2 944 kb/s
Width : 1 280 pixels
Height : 696 pixels
Display aspect ratio : 1.85:1
Frame rate mode : Constant
Frame rate : 25.000 FPS
Color space : YUV
Chroma subsampling : 4:2:0
Bit depth : 8 bits
Scan type : Progressive
Bits/(Pixel*Frame) : 0.132
Stream size : 1.98 GiB (94%)
Language : Russian
Default : Yes
Forced : No
Audio
ID : 2
Format : AC-3
Format/Info : Audio Coding 3
Mode extension : CM (complete main)
Format settings, Endianness : Big
Codec ID : A_AC3
Duration : 1 h 36 min
Bit rate mode : Constant
Bit rate : 192 kb/s
Channel(s) : 2 channels
Channel positions : Front: L R
Sampling rate : 44.1 kHz
Frame rate : 28.711 FPS (1536 spf)
Compression mode : Lossy
Stream size : 132 MiB (6%)
Language : Russian
Default : Yes
Forced : No



   Похожие торренты   Торрент   Размер 
В этой теме нет новых непрочитанных сообщений. Белый мавр, или Интимные истории о моих соседях (2012) DVD5

3 | 4

4.14 ГБ

В этой теме нет новых непрочитанных сообщений. Белый мавр, или Интимные истории о моих соседях (2012) WEB-DLRip-AVC

102 | 4

1.81 ГБ

В этой теме нет новых непрочитанных сообщений. Белый мавр, или Интимные истории о моих соседях (2012) WEB-DLRip-AVC от Files-x

120 | 7

1.37 ГБ

В этой теме нет новых непрочитанных сообщений. Белый мавр, или Интимные истории о моих соседях (2012) DVDRip | Лицензия

122 | 15

1.37 ГБ

В этой теме нет новых непрочитанных сообщений. Белый мавр, или Интимные истории о моих соседях (2012) DVDRip от CinemaClub

18 | 2

700.09 МБ

В этой теме нет новых непрочитанных сообщений. Белый мавр, или Интимные истории о моих соседях (2012) WEB-DLRip| КПК от ImperiaFilm

35 | 1

329.43 МБ

В этой теме нет новых непрочитанных сообщений. Белый мавр, или Интимные истории о моих соседях (2012) DVDRip-AVC от Киномагия

22 | 3

1.44 ГБ




Вы не можете начинать темы
Вы не можете отвечать на сообщения
Вы не можете редактировать свои сообщения
Вы не можете удалять свои сообщения
Вы не можете добавлять вложения

Перейти:  
Для Мосгорсуда, Роскомнадзора и рекламодателей: mosgorsud-torrent[собачка]yandex.ru
 Вход
ppkBB3cker v.2 © 2008-2014 @ PPK
[ Time : 0.030s | 16 Queries | GZIP : Off ]

Торрент трекер RUTOR.IN, Не можете зайти на rutor.org? Какой новый адрес рутор? Какое зеркало рутор? Не работает rutor.org и зеркала? Тогда наш торрент специально для вас. Rutor.in неофициальное зеркало rutor. В случае если у Вас заблокирован rutor или вдруг Вы не можете на него зайти, то Вы без труда сможете скачать бесплатно и без рекламы последние новинки кино, игр, сериалов и прочего у нас, на Rutor.in. Не нужно использовать прокси, чтобы зайти на рутор, достаточно воспользоваться нашим ресурсом. Все новые фильмы, игры, сериалы, книги и музыка за 2013 и 2014 годы через торрент бесплатно. Скачивайте фильмы в хорошем качестве, игры для пк, xbox, playstation без регистрации. У нас вы найдете новые Зарубежные сериалы и Русские сериалы 2013, 2014, 2015 годов. Оставайтесь с нами, качайте любимые фильмы, игры, сериалы, книги и музыку.