img image001 image001 image001 image001 image001 image001 image001 image001 image001 image001 image001 image001 image001 image001 image001

Planets Sun Sun Sun
Статистика раздачи
Автор: PriZraK | Размер: 748.03 МБ | Добавлен: 15 авг 2016
Раздают: 2037    Качают: 39
Скачать торрент
Скачать торрент
Описание торрента

СообщениеДобавлено: 15 авг 2016 


Информация о фильме
Название: Душа шпиона
Год выхода: 2015
Жанр: Драма, детектив
Режиссер: Владимир Бортко
В ролях: Андрей Чернышов, Фёдор Бондарчук, Даниил Спиваковский, Марина Александрова, Малкольм МакДауэлл, Сандрин Боннэр, Лайэм Каннингхэм, Михаил Ефремов, Армен Джигарханян, Нина Гогаева, Кристина Бродская, Алексей Булдаков, Алексей Панин, Рудольф Фурманов, Ольга Дроздова, Мария Жиганова, Анна Екатерининская, Виталий Кривонос
О фильме:
Перед российским шпионом в Англии Алексом Уилки стоит задача проникнуть в американскую разведку и выявить крота — нашего разведчика, передающего врагу агентурные сведения. Герой вынужден преодолевать невероятные препятствия, чтобы войти в доверие к американцам…

Страна: Россия
Студия: "ТРИТЭ", "Студия "2-Б-2" Интертэйнмент", "Телекомпания"
Продолжительность: 01:44:55
Перевод: Не требуется
Файл
Кодек: XviD
Качество: HDTVRip
Видео: 624x336 (1.85:1), 25 fps, XviD build 73 ~859 kbps avg, 0.16 bit/pixel
Звук: 48 kHz, MPEG Layer 3, 2 ch, ~128.00 kbps avg
Субтитры: Отсутствуют
Семпл
General
Complete name : D:Изготовление рипаDusha.shpiona.2014.HDTVRip.by shkiper.avi
Format : AVI
Format/Info : Audio Video Interleave
File size : 748 MiB
Duration : 1h 44mn
Overall bit rate : 997 Kbps
Writing application : VirtualDubMod 1.5.10.3 | www.virtualdub-fr.org || (build 2550/release)
Writing library : VirtualDubMod build 2550/release
Video
ID : 0
Format : MPEG-4 Visual
Format profile : Advanced Simple@L5
Format settings, BVOP : 1
Format settings, QPel : No
Format settings, GMC : No warppoints
Format settings, Matrix : Custom
Codec ID : XVID
Codec ID/Hint : XviD
Duration : 1h 44mn
Bit rate : 859 Kbps
Width : 624 pixels
Height : 336 pixels
Display aspect ratio : 1.85:1
Frame rate : 25.000 fps
Color space : YUV
Chroma subsampling : 4:2:0
Bit depth : 8 bits
Scan type : Progressive
Compression mode : Lossy
Bits/(Pixel*Frame) : 0.164
Stream size : 645 MiB (86%)
Writing library : XviD 73
Audio
ID : 1
Format : MPEG Audio
Format version : Version 1
Format profile : Layer 3
Codec ID : 55
Codec ID/Hint : MP3
Duration : 1h 44mn
Bit rate mode : Constant
Bit rate : 128 Kbps
Channel(s) : 2 channels
Sampling rate : 48.0 KHz
Compression mode : Lossy
Stream size : 96.0 MiB (13%)
Alignment : Aligned on interleaves
Interleave, duration : 40 ms (1.00 video frame)
Interleave, preload duratio : 504 ms
Writing library : LAME3.99r
Encoding settings : -m s -V 4 -q 2 -lowpass 17 -b 128

Релиз от: & Imperiafilm



   Похожие торренты   Торрент   Размер 
В этой теме нет новых непрочитанных сообщений. Душа шпиона (2015) HDTVRip 720p

402 | 20

3.16 ГБ

В этой теме нет новых непрочитанных сообщений. Душа шпиона (2014) HDTVRip-AVC

204 | 1

752.11 МБ

В этой теме нет новых непрочитанных сообщений. Душа шпиона (2014) HDTVRip от Files-x

1352 | 41

1.37 ГБ

В этой теме нет новых непрочитанных сообщений. Душа шпиона (2014) HDTVRip-AVC от GeneralFilm

227 | 9

1.61 ГБ

В этой теме нет новых непрочитанных сообщений. Душа шпиона (2014) HDTVRip 720p от MediaClub

373 | 10

2.71 ГБ

В этой теме нет новых непрочитанных сообщений. Душа шпиона (2014) HDTV 1080i

98 | 6

6.21 ГБ

В этой теме нет новых непрочитанных сообщений. Наталья Богунова. Расколотая Душа (2015) HDTVRip 720p

21 | 10

1.47 ГБ




Вы не можете начинать темы
Вы не можете отвечать на сообщения
Вы не можете редактировать свои сообщения
Вы не можете удалять свои сообщения
Вы не можете добавлять вложения

Перейти:  
Для Мосгорсуда, Роскомнадзора и рекламодателей: mosgorsud-torrent[собачка]yandex.ru
 Вход
ppkBB3cker v.2 © 2008-2014 @ PPK
[ Time : 0.545s | 15 Queries | GZIP : Off ]

Торрент трекер RUTOR.IN, Не можете зайти на rutor.org? Какой новый адрес рутор? Какое зеркало рутор? Не работает rutor.org и зеркала? Тогда наш торрент специально для вас. Rutor.in неофициальное зеркало rutor. В случае если у Вас заблокирован rutor или вдруг Вы не можете на него зайти, то Вы без труда сможете скачать бесплатно и без рекламы последние новинки кино, игр, сериалов и прочего у нас, на Rutor.in. Не нужно использовать прокси, чтобы зайти на рутор, достаточно воспользоваться нашим ресурсом. Все новые фильмы, игры, сериалы, книги и музыка за 2013 и 2014 годы через торрент бесплатно. Скачивайте фильмы в хорошем качестве, игры для пк, xbox, playstation без регистрации. У нас вы найдете новые Зарубежные сериалы и Русские сериалы 2013, 2014, 2015 годов. Оставайтесь с нами, качайте любимые фильмы, игры, сериалы, книги и музыку.
cron