img image001 image001 image001 image001 image001 image001 image001 image001 image001 image001 image001 image001 image001 image001 image001

Planets Sun Sun Sun

COVID-19 - Последняя информация о коронавирусе на сайте Минздрава


Статистика раздачи
Автор: PriZraK | Размер: 1.31 ГБ | Добавлен: 15 авг 2016
Раздают: 56    Качают: 4
Скачать торрент
Скачать торрент
Описание торрента

СообщениеДобавлено: 15 авг 2016 

Информация о фильме
Название: Однажды 20 лет спустя
Год выхода: 1980
Жанр: Комедия
Режиссер: Юрий Егоров
В ролях: Наталья Гундарева, Виктор Проскурин, Евгений Лазарев, Олег Ефремов, Олег Ефремов, Валентина Титова, Ольга Гобзева, Александр Потапов, Игорь Ясулович, Валентин Смирнитский, Инга Будкевич, Марина Яковлева, Алексей Ясулович, Максим Пучков, Михаил Еремеев, Леонид Якубович, Елена Борзунова, Радий Афанасьев, Аркадий Инин, Алевтина Румянцева
О фильме:
Выпускники одной из московских школ через двадцать лет после окончания собираются вместе. Каждого просят ответить на два вопроса: «Что вы уже сделали?» и «Чего еще в жизни ждете?». Вместе с бывшими однокашниками пытается найти ответы на поставленные вопросы и главная героиня фильма — многодетная мать Надя Круглова.

Страна: СССР
Продолжительность: 01:13:35
Перевод: не требуется
Файл
Качество: WEB-DLRip (AVC)
Видео: MPEG-4 AVC, 2093 Кбит/с, 1024x440
Аудио: АС3, 6 ch, 448 Кбит/с
General
Unique ID : 223877511396062662154024838609480195657 (0xA86D3D84C6C28BFEA454DAE170B01E49)
Complete name : E:OdnazhdI.20.let.spustia.1980.WEBDLRip.AVC.ExKinoRay.mkv
Format : Matroska
Format version : Version 2
File size : 1.31 GiB
Duration : 1 h 13 min
Overall bit rate : 2 543 kb/s
Movie name : Однажды 20 лет спустя 1980 from ExKinoRay
Encoded date : UTC 2016-08-14 14:02:55
Writing application : mkvmerge v7.6.0 ('Garden of Dreams') 32bit built on Feb 11 2015 00:18:47
Writing library : libebml v1.3.1 + libmatroska v1.4.2
Attachments : POSTER.jpg
Video
ID : 1
Format : AVC
Format/Info : Advanced Video Codec
Format profile : High@L4.1
Format settings, CABAC : Yes
Format settings, ReFrames : 11 frames
Codec ID : V_MPEG4/ISO/AVC
Duration : 1 h 13 min
Bit rate : 2 093 kb/s
Width : 1 024 pixels
Height : 440 pixels
Display aspect ratio : 2.35:1
Frame rate mode : Constant
Frame rate : 25.000 FPS
Color space : YUV
Chroma subsampling : 4:2:0
Bit depth : 8 bits
Scan type : Progressive
Bits/(Pixel*Frame) : 0.186
Stream size : 1.05 GiB (80%)
Title : Enigma
Writing library : x264 core 144 r2525 40bb568
Encoding settings : cabac=1 / ref=11 / deblock=1:-2:-2 / analyse=0x3:0x113 / me=umh / subme=10 / psy=1 / psy_rd=1.00:0.05 / mixed_ref=1 / me_range=32 / chroma_me=1 / trellis=2 / 8x8dct=1 / cqm=0 / deadzone=21,11 / fast_pskip=0 / chroma_qp_offset=-3 / threads=12 / lookahead_threads=2 / sliced_threads=0 / nr=0 / decimate=0 / interlaced=0 / bluray_compat=0 / constrained_intra=0 / bframes=9 / b_pyramid=2 / b_adapt=2 / b_bias=0 / direct=3 / weightb=1 / open_gop=0 / weightp=2 / keyint=250 / keyint_min=25 / scenecut=40 / intra_refresh=0 / rc=2pass / mbtree=0 / bitrate=2093 / ratetol=1.0 / qcomp=0.60 / qpmin=0 / qpmax=51 / qpstep=4 / cplxblur=20.0 / qblur=0.5 / ip_ratio=1.40 / pb_ratio=1.30 / aq=1:1.00
Default : Yes
Forced : No
Color range : Limited
Color primaries : BT.709
Transfer characteristics : BT.709
Matrix coefficients : BT.709
Audio
ID : 2
Format : AC-3
Format/Info : Audio Coding 3
Mode extension : CM (complete main)
Format settings, Endianness : Big
Codec ID : A_AC3
Duration : 1 h 13 min
Bit rate mode : Constant
Bit rate : 448 kb/s
Channel(s) : 6 channels
Channel positions : Front: L C R, Side: L R, LFE
Sampling rate : 48.0 kHz
Frame rate : 31.250 FPS (1536 spf)
Compression mode : Lossy
Stream size : 236 MiB (18%)
Language : Russian
Default : Yes
Forced : No
Menu
00:00:00.000 : en:1
00:05:40.000 : en:2
00:10:27.000 : en:3
00:15:29.000 : en:4
00:24:28.000 : en:5
00:32:12.000 : en:6
00:39:24.000 : en:7
00:46:37.000 : en:8
00:53:30.000 : en:9
01:02:07.000 : en:10
01:09:13.000 : en:11


Релиз от:
Автор релиза:

   Похожие торренты   Торрент   Размер 
В этой теме нет новых непрочитанных сообщений. Однажды двадцать лет спустя (1980) WEB-DLRip от New Team

100 | 6

1.45 ГБ

В этой теме нет новых непрочитанных сообщений. Однажды двадцать лет спустя (1980) WEB-DL 720p от New Team

130 | 20

2.27 ГБ

В этой теме нет новых непрочитанных сообщений. Чернобыль: 30 лет спустя / Chernobyl 30 Years On (2015) WEB-DLRip от MegaPeer

13 | 0

740.74 МБ

В этой теме нет новых непрочитанных сообщений. Чернобыль: 30 лет спустя / Chernobyl 30 Years On (2015) WEB-DLRip 720p от MegaPeer

41 | 3

1.01 ГБ

В этой теме нет новых непрочитанных сообщений. Однажды в России [01-04x01-52] (2014-2016) WEB-DLRip-AVC от ExKinoRay

0 | 0

34.76 ГБ

В этой теме нет новых непрочитанных сообщений. Дальнобойщики. Десять лет спустя [S03] (2011) WEBRip-AVC

17 | 7

7.65 ГБ

В этой теме нет новых непрочитанных сообщений. Однажды в России [02х01-18] (2015) WEB-DLRip от ExKinoRay

184 | 115

10.22 ГБ




Вы не можете начинать темы
Вы не можете отвечать на сообщения
Вы не можете редактировать свои сообщения
Вы не можете удалять свои сообщения
Вы не можете добавлять вложения

Перейти:  
Контактная информация: rstracker[пёсик]yandex.ru
 Вход
ppkBB3cker v.2 © 2008-2014 @ PPK
[ Time : 0.023s | 16 Queries | GZIP : Off ]

cron