img image001 image001 image001 image001 image001 image001 image001 image001 image001 image001 image001 image001 image001 image001 image001

Planets Sun Sun Sun
Статистика раздачи
Автор: PriZraK | Размер: 1.33 ГБ | Добавлен: 18 авг 2016
Раздают: 40    Качают: 5
Скачать торрент
Скачать торрент
Описание торрента

СообщениеДобавлено: 18 авг 2016 


Информация о фильме
Название: Дачная поездка сержанта Цыбули
Год выхода: 1979
Жанр: Комедия, военный
Режиссер: Николай Литус, Виталий Шунько
В ролях: Сергей Иванов, Владимир Алексеенко, Михаил Кокшенов, Надежда Смирнова, Володя Чубарев, Михаил Львов, Нина Реус, Степан Олексенко, Сергей Свечников, Маргарита Криницына, Николай Литус, Борис Сабуров, Евгений Мажуга, Полина (Пелагея) Куманченко, Сергей Шеметило, Владимир Бездомников, Геннадий Болотов, Георгий Дворников, Леонид Марченко, Юрий Мысенков, Лев Перфилов, Анатолий Помилуйко, Анатолий Сиротенко, Анатолий Скорякин, Василий Фущич, Виктор Андриенко
О фильме:
Разведчик, сержант Цыбуля, успешно выполнив очередное задание, снова отправляется в тыл к немцам. Теперь ему поручено доставить партизанам медикаменты, продовольствие и взрывчатку.
Приняв костры врага за опознавательные сигналы партизан, Цыбуля приземляется в логове противника… Но, перехитрив своих преследователей и захватив в плен немецкого майора, он все-таки прорывается к партизанам на вражеском бронепоезде.

Страна: СССР
Студия: Киностудия им. А. Довженко
Продолжительность: 01:12:30
Перевод: Не требуется
Файл
Кодек: XviD
Качество: HDTVRip
Видео: 720x304 (2.35:1), 25 fps, XviD build 73 ~2229 kbps avg, 0.41 bit/pixel
Звук: 48 kHz, AC3 Dolby Digital, 2/0 (L,R) ch, ~384 kbps
Субтитры: Отсутствуют
Семпл
General
Complete name : D:Изготовление рипаDachnaja.poezdka.serzhanta.Cibuli.1979.HDTVRip.by shkiper.avi
Format : AVI
Format/Info : Audio Video Interleave
File size : 1.33 GiB
Duration : 1h 12mn
Overall bit rate : 2 623 Kbps
Writing application : VirtualDubMod 1.5.10.3 | www.virtualdub-fr.org || (build 2550/release)
Writing library : VirtualDubMod build 2550/release
Video
ID : 0
Format : MPEG-4 Visual
Format profile : Advanced Simple@L5
Format settings, BVOP : 1
Format settings, QPel : No
Format settings, GMC : No warppoints
Format settings, Matrix : Custom
Codec ID : XVID
Codec ID/Hint : XviD
Duration : 1h 12mn
Bit rate : 2 230 Kbps
Width : 720 pixels
Height : 304 pixels
Display aspect ratio : 2.35:1
Frame rate : 25.000 fps
Color space : YUV
Chroma subsampling : 4:2:0
Bit depth : 8 bits
Scan type : Progressive
Compression mode : Lossy
Bits/(Pixel*Frame) : 0.407
Stream size : 1.13 GiB (85%)
Writing library : XviD 73
Audio
ID : 1
Format : AC-3
Format/Info : Audio Coding 3
Mode extension : CM (complete main)
Format settings, Endianness : Big
Codec ID : 2000
Duration : 1h 12mn
Bit rate mode : Constant
Bit rate : 384 Kbps
Channel(s) : 2 channels
Channel positions : Front: L R
Sampling rate : 48.0 KHz
Frame rate : 31.250 fps (1536 spf)
Compression mode : Lossy
Stream size : 199 MiB (15%)
Alignment : Split accross interleaves
Interleave, duration : 40 ms (1.00 video frame)
Interleave, preload duratio : 500 ms

Релиз от:



   Похожие торренты   Торрент   Размер 
В этой теме нет новых непрочитанных сообщений. Дачная поездка сержанта Цыбули (1979) HDTVRip

224 | 26

743.18 МБ

В этой теме нет новых непрочитанных сообщений. Дачная поездка сержанта Цыбули (1979) HDTVRip 720p

473 | 48

1.53 ГБ

В этой теме нет новых непрочитанных сообщений. Дачная поездка сержанта Цыбули (1979) DVDRip

81 | 11

1.37 ГБ

В этой теме нет новых непрочитанных сообщений. Дачная поездка сержанта Цыбули (1979) DVDRip-AVC от New-Team

86 | 11

1.45 ГБ

В этой теме нет новых непрочитанных сообщений. Дачная поездка сержанта Цыбули (1979) DVDRip от New-Team

24 | 8

743.68 МБ

В этой теме нет новых непрочитанных сообщений. Дачная поездка сержанта Цыбули (1979) DVDRip от Alekxandr48

6 | 3

700.43 МБ

В этой теме нет новых непрочитанных сообщений. Дачная поездка сержанта Цыбули (1979) DVDRip - Files-x

4 | 12

1.46 ГБ




Вы не можете начинать темы
Вы не можете отвечать на сообщения
Вы не можете редактировать свои сообщения
Вы не можете удалять свои сообщения
Вы не можете добавлять вложения

Перейти:  
Для Мосгорсуда, Роскомнадзора и рекламодателей: mosgorsud-torrent[собачка]yandex.ru
 Вход
ppkBB3cker v.2 © 2008-2014 @ PPK
[ Time : 0.062s | 15 Queries | GZIP : Off ]

Торрент трекер RUTOR.IN, Не можете зайти на rutor.org? Какой новый адрес рутор? Какое зеркало рутор? Не работает rutor.org и зеркала? Тогда наш торрент специально для вас. Rutor.in неофициальное зеркало rutor. В случае если у Вас заблокирован rutor или вдруг Вы не можете на него зайти, то Вы без труда сможете скачать бесплатно и без рекламы последние новинки кино, игр, сериалов и прочего у нас, на Rutor.in. Не нужно использовать прокси, чтобы зайти на рутор, достаточно воспользоваться нашим ресурсом. Все новые фильмы, игры, сериалы, книги и музыка за 2013 и 2014 годы через торрент бесплатно. Скачивайте фильмы в хорошем качестве, игры для пк, xbox, playstation без регистрации. У нас вы найдете новые Зарубежные сериалы и Русские сериалы 2013, 2014, 2015 годов. Оставайтесь с нами, качайте любимые фильмы, игры, сериалы, книги и музыку.