img image001 image001 image001 image001 image001 image001 image001 image001 image001 image001 image001 image001 image001 image001 image001

Planets Sun Sun Sun
Статистика раздачи
Автор: PriZraK | Размер: 746.25 МБ | Добавлен: 18 авг 2016
Раздают: 6    Качают: 1
Скачать торрент
Скачать торрент
Описание торрента

СообщениеДобавлено: 18 авг 2016 

Страна: СССР
Производство: Мосфильм
Жанр: драма
Год выпуска: 1955
Продолжительность: 01:45:35
Перевод: Не требуется
Cубтитры: нет
Оригинальная аудиодорожка: русский
Режиссер: Юлий Райзман
В ролях:
Валентина Калинина, Иван Переверзев, Ольга Аросева, Георгий Куликов, Маргарита Юрьева, Виктор Авдюшко, Ирина Акташева, Федор Шиманский, Евгений Весник, Андрюша Михайлов...
Полный список актёров
Описание:
Наташа бросает учебу в пединституте и едет с Сергеем на стройку. Успехи мужа делают его все более самоуверенным и грубым. Она же чувствует себя одинокой и чужой в собственной семье. Наступает момент, когда Наташа уже не может примириться ни с бесполезностью своей жизни, ни с его вероломством. Она уезжает, завершает учебу в институте и становится учительницей. Но тревожные мысли о Сергее не оставляют ее ни на минуту...





Источник: DVB
Качество видео: SATRip
Формат видео: AVI
Видео: 560x416 (1,346:1), 25 fps, XviD ~ 850 kbps avg, 0.146 bit/pixel
Аудио: 48 kHz, MP3 2.0, 128 kbps
Раздача от:
Общее
Полное имя : Urok.zhizni.1955.SATRip-745_[New-team]_by_AVP_Studio.avi
Формат : AVI
Формат/Информация : Audio Video Interleave
Размер файла : 746 Мбайт
Продолжительность : 1 ч. 45 м.
Общий поток : 988 Кбит/сек
Программа кодирования : VirtualDubMod 1.5.10.3 | www.virtualdub-fr.org || (build 2550/release)
Библиотека кодирования : VirtualDubMod build 2550/release
Видео
Идентификатор : 0
Формат : MPEG-4 Visual
Профиль формата : Advanced Simple@L5
Параметр BVOP формата : 1
Параметр QPel формата : Нет
Параметр GMC формата : Без точки перехода
Параметр матрицы формата : Выборочная
Идентификатор кодека : XVID
Идентификатор кодека/Подсказка : XviD
Продолжительность : 1 ч. 45 м.
Битрейт : 850 Кбит/сек
Ширина : 560 пикселей
Высота : 416 пикселей
Соотношение сторон : 1,346
Частота кадров : 25,000 кадров/сек
Цветовое пространство : YUV
Субдискретизация насыщенности : 4:2:0
Битовая глубина : 8 бит
Тип развёртки : Прогрессивная
Метод сжатия : С потерями
Бит/(Пиксели*Кадры) : 0.146
Размер потока : 642 Мбайт (86%)
Библиотека кодирования : XviD 1.2.1 (UTC 2008-12-04)
Аудио
Идентификатор : 1
Формат : MPEG Audio
Версия формата : Version 1
Профиль формата : Layer 3
Идентификатор кодека : 55
Идентификатор кодека/Подсказка : MP3
Продолжительность : 1 ч. 45 м.
Вид битрейта : Постоянный
Битрейт : 128 Кбит/сек
Каналы : 2 канала
Частота : 48,0 КГц
Метод сжатия : С потерями
Размер потока : 96,7 Мбайт (13%)
Выравнивание : Соединение по промежуткам
Продолжительность промежутка : 40 мс. (1,00 видеокадр)
Время предзагрузки промежутка : 504 мс.
Библиотека кодирования : LAME3.99r
Настройки программы : -m s -V 4 -q 2 -lowpass 17 -b 128





   Похожие торренты   Торрент   Размер 
В этой теме нет новых непрочитанных сообщений. Урок жизни (1955) SATRip-AVC от New-Team

18 | 2

1.46 ГБ

В этой теме нет новых непрочитанных сообщений. Урок жизни (1955) SATRip от New-Team

20 | 4

1.46 ГБ

В этой теме нет новых непрочитанных сообщений. Сын (1955) SATRip от New-Team

4 | 2

1.09 ГБ

В этой теме нет новых непрочитанных сообщений. Сын (1955) SATRip-AVC от New-Team

15 | 1

1.09 ГБ

В этой теме нет новых непрочитанных сообщений. Сын (1955) SATRip от New-Team

4 | 2

744.6 МБ

В этой теме нет новых непрочитанных сообщений. Овод (1955) SATRip-AVC от New-Team

12 | 5

1.46 ГБ

В этой теме нет новых непрочитанных сообщений. Вольница (1955) SATRip от New-Team

13 | 1

1.46 ГБ




Вы не можете начинать темы
Вы не можете отвечать на сообщения
Вы не можете редактировать свои сообщения
Вы не можете удалять свои сообщения
Вы не можете добавлять вложения

Перейти:  
Для Мосгорсуда, Роскомнадзора и рекламодателей: mosgorsud-torrent[собачка]yandex.ru
 Вход
ppkBB3cker v.2 © 2008-2014 @ PPK
[ Time : 0.041s | 16 Queries | GZIP : Off ]

cron