img image001 image001 image001 image001 image001 image001 image001 image001 image001 image001 image001 image001 image001 image001 image001

Planets Sun Sun Sun
Статистика раздачи
Автор: PriZraK | Размер: 745.93 МБ | Добавлен: 23 авг 2016
Раздают: 64    Качают: 2
Скачать торрент
Скачать торрент
Описание торрента

СообщениеДобавлено: 23 авг 2016 


Информация о фильме
Название: Белый мавр, или Интимные истории о моих соседях
Год выхода: 2012
Жанр: Драма, комедия
Режиссер: Дмитрий Фикс
В ролях: Вячеслав Разбегаев, Галина Петрова, Андрей Соколов, Сергей Астахов, Александр Галибин, Екатерина Стриженова, Эвклид Кюрдзидис, Жанна Эппле, Игорь Верник, Олеся Железняк, Анна Якунина, Евгения Морозова, Полина Райкина
О фильме:
Это ироничная, местами откровенно смешная и в тоже время грустная история о буднях так называемого «верхнего среднего класса» — воспетой в Америке Вуди Алленом, но пока еще весьма малочисленной в нашей стране прослойке состоятельных граждан. Помимо завидного достатка, всех этих погрязших в экзистенциальных сомнениях и банальных адюльтерах бизнесменов, кинозвезд, модных режиссеров, хозяев стоматологических клиник и их прекрасных жен объединяет еще и звонкое пионерское прошлое, преодолеть которое подчас оказывается гораздо сложнее, чем отгрохать особняк на Новой Риге…

Страна: Россия
Студия: Мотор Фильм
Продолжительность: 01:35:21
Перевод: Не требуется
Файл
Кодек: XviD
Качество: WEB-DLRip
Видео: 656x352 (1.85:1), 25 fps, XviD build 73 ~955 kbps avg, 0.17 bit/pixel
Звук: 44.100 kHz, MPEG Layer 3, 2 ch, ~128.00 kbps avg
Субтитры: Отсутствуют

Семпл
General
Complete name : D:Изготовление рипаBelyy mavr, ili Intimnye istorii o moikh sosedyakh.2012.WEB-DLRip by shkiper.avi
Format : AVI
Format/Info : Audio Video Interleave
File size : 746 MiB
Duration : 1h 35mn
Overall bit rate : 1 094 Kbps
Writing application : VirtualDubMod 1.5.10.3 | www.virtualdub-fr.org || (build 2550/release)
Writing library : VirtualDubMod build 2550/release
Video
ID : 0
Format : MPEG-4 Visual
Format profile : Advanced Simple@L5
Format settings, BVOP : 1
Format settings, QPel : No
Format settings, GMC : No warppoints
Format settings, Matrix : Custom
Codec ID : XVID
Codec ID/Hint : XviD
Duration : 1h 35mn
Bit rate : 956 Kbps
Width : 656 pixels
Height : 352 pixels
Display aspect ratio : 1.85:1
Frame rate : 25.000 fps
Color space : YUV
Chroma subsampling : 4:2:0
Bit depth : 8 bits
Scan type : Progressive
Compression mode : Lossy
Bits/(Pixel*Frame) : 0.166
Stream size : 652 MiB (87%)
Writing library : XviD 73
Audio
ID : 1
Format : MPEG Audio
Format version : Version 1
Format profile : Layer 3
Codec ID : 55
Codec ID/Hint : MP3
Duration : 1h 35mn
Bit rate mode : Constant
Bit rate : 128 Kbps
Channel(s) : 2 channels
Sampling rate : 44.1 KHz
Compression mode : Lossy
Stream size : 87.3 MiB (12%)
Alignment : Split accross interleaves
Interleave, duration : 40 ms (1.00 video frame)
Interleave, preload duratio : 500 ms
Writing library : LAME3.99r
Encoding settings : -m s -V 4 -q 2 -lowpass 17 -b 128

Релиз от:



   Похожие торренты   Торрент   Размер 
В этой теме нет новых непрочитанных сообщений. Белый мавр, или Интимные истории о моих соседях (2012) WEB-DLRip| КПК от ImperiaFilm

35 | 1

329.43 МБ

В этой теме нет новых непрочитанных сообщений. Белый мавр, или Интимные истории о моих соседях (2012) WEB-DLRip-AVC

102 | 4

1.81 ГБ

В этой теме нет новых непрочитанных сообщений. Белый мавр, или Интимные истории о моих соседях (2012) WEB-DLRip-AVC от Files-x

120 | 7

1.37 ГБ

В этой теме нет новых непрочитанных сообщений. Белый мавр, или Интимные истории о моих соседях (2012) DVD5

3 | 4

4.14 ГБ

В этой теме нет новых непрочитанных сообщений. Белый мавр, или Интимные истории о моих соседях (2012) WEB-DL 720p

253 | 8

2.11 ГБ

В этой теме нет новых непрочитанных сообщений. Белый мавр, или Интимные истории о моих соседях (2012) DVDRip | Лицензия

122 | 15

1.37 ГБ

В этой теме нет новых непрочитанных сообщений. Белый мавр, или Интимные истории о моих соседях (2012) DVDRip-AVC от Киномагия

22 | 3

1.44 ГБ




Вы не можете начинать темы
Вы не можете отвечать на сообщения
Вы не можете редактировать свои сообщения
Вы не можете удалять свои сообщения
Вы не можете добавлять вложения

Перейти:  
Для Мосгорсуда, Роскомнадзора и рекламодателей: mosgorsud-torrent[собачка]yandex.ru
 Вход
ppkBB3cker v.2 © 2008-2014 @ PPK
[ Time : 0.018s | 15 Queries | GZIP : Off ]

Торрент трекер RUTOR.IN, Не можете зайти на rutor.org? Какой новый адрес рутор? Какое зеркало рутор? Не работает rutor.org и зеркала? Тогда наш торрент специально для вас. Rutor.in неофициальное зеркало rutor. В случае если у Вас заблокирован rutor или вдруг Вы не можете на него зайти, то Вы без труда сможете скачать бесплатно и без рекламы последние новинки кино, игр, сериалов и прочего у нас, на Rutor.in. Не нужно использовать прокси, чтобы зайти на рутор, достаточно воспользоваться нашим ресурсом. Все новые фильмы, игры, сериалы, книги и музыка за 2013 и 2014 годы через торрент бесплатно. Скачивайте фильмы в хорошем качестве, игры для пк, xbox, playstation без регистрации. У нас вы найдете новые Зарубежные сериалы и Русские сериалы 2013, 2014, 2015 годов. Оставайтесь с нами, качайте любимые фильмы, игры, сериалы, книги и музыку.
cron