img image001 image001 image001 image001 image001 image001 image001 image001 image001 image001 image001 image001 image001 image001 image001

Planets Sun Sun Sun
Статистика раздачи
Автор: PriZraK | Размер: 1.79 ГБ | Добавлен: 24 авг 2016
Раздают: 16    Качают: 7
Скачать торрент
Скачать торрент
Описание торрента

СообщениеДобавлено: 24 авг 2016 


Информация о фильме
Название: Мать урагана / Мацi ўрагану
Год выхода: 1990
Жанр: драма
Режиссер: Юрий Марухин
В ролях: Александр Гоманюк, Людмила Полякова, Александр Владомирский, Геннадий Гарбук, Анатолий Жук, Наталья Кишова, Виталий Котовицкий, Татьяна Мархель, Иван Мацкевич, Владимир Мищанчук, Геннадий Овсянников, Алесь Пузыня, Владимир Сичкарь, Виктор Тарасов, Александр Филиппенко, Евгений Шипило, Владимир Пузыня, Дмитрий Воскобойников, Станислав Вилькин, Виктор Черняков, Петра Шимонова, Иржи Крытинарж, Виктор Докучаев, Борис Лагода
О фильме:
В крестьянской усадьбе вдовы Агны Ветер - праздник: вечер перед свадьбой ее сына Василя. В суете приготовлений появляется некий Вощила - один из организаторов грядущего крестьянского восстания против бесчинств магната Радзивилла. Василь Ветер поначалу занимает миролюбивую позицию, взывая к мирским радостям и прекращению всякого кровопролития. Но в этот момент во двор беспардонно врываются сборщики налогов Радзивилла. Этот эпизод становится поводом для того, чтобы Василь поддался уговорам Вощилы возглавить восстание...
...Пылают в ночи факелы. Агна дает клятву, благословляя сына на путь святой борьбы.
По одноименной пьесе Владимира Короткевича о национально-освободительном антифеодальном восстании белорусских крестьян в XVIII веке против феодала Радзивилла и польской шляхты.
Доп. информация:
Сценарий: Владимир Голованов
Оператор: Юрий Марухин
Художник: Игорь Топилин
Композитор: Олег Янченко
Производство: "Беларусьфильм" при участии "Баррандов" (Чехословакия)
Премьера: январь 1991
Действие фильма разворачивается на фоне национально-освободительной борьбы белорусских крестьян против феодала Радзивилла и польской шляхты. Это было восстание, преданное на корню. Поднявшийся народ — с топорами, пиками, рогатинами — осаждал замок, но так и не смог его взять. Почти все смутьяны были князем Радзивиллом казнены. Трагическую историю бунта белорусских крестьян в XVIII веке против феодалов воссоздал на студии «Беларусьфильм» Юрий Марухин (сценарий по роману В. Короткевича написал В. Голованов). В прошлом Марухин — оператор, потому за кинокамеру и здесь решил встать сам, так что «Мать урагана» во многом авторский фильм. В съемках помогали коллеги из Чехословакии.


Благодарность:
Исходник для данной раздачи, записан с цифрового наземного канала, т.е. DVB-Т, любезно предоставлен PavelDAS.
За что ему большое спасибо!
За помощь с сведением белорусской звуковой дорожки отдельное спасибо Bartimeyse.
Сведение звука mkvmerge v8.5.1 без перекодировки.

Страна: СССР , ЧССР
Студия: "Беларусьфильм" при участии "Баррандов" (Чехословакия)
Продолжительность: 01:37:50
Перевод: русская + белорусская, две отдельные родные звуковые дорожки
Файл
Кодек: AVC (H264)
Качество: DVB
Видео: MPEG4 Video (H264) 720(785)x576 (49:36) 25fps, 2 185 Kbps
Аудио 1: MPEG Audio 48000Hz stereo 256 kbps [RU]
Аудио 2: MPEG Audio 48000Hz stereo 128 Kbps [BEL]
Семпл: https://www.sendspace.com/file/r5wew7
General
Unique ID : 198024211249751840554621497615233257610 (0x94FA1368ACABE1A5A52322903B23108A)
Complete name : D:Новая земля 2Художественные фильмыМать Урагана_Мацi ўрагану Есть старый вариантМать Урагана_1990 MKVМать Урагана_(RU_BEL)_(1990).mkv
Format : Matroska
Format version : Version 4 / Version 2
File size : 1.79 GiB
Duration : 1h 37mn
Overall bit rate : 2 622 Kbps
Encoded date : UTC 2016-08-23 19:39:40
Writing application : mkvmerge v8.5.1 ('Where you lead I will follow') 32bit
Writing library : libebml v1.3.3 + libmatroska v1.4.4
DURATION : 01:37:50.112000000
NUMBER_OF_FRAMES : 244588
NUMBER_OF_BYTES : 93921792
_STATISTICS_WRITING_APP : mkvmerge v8.5.1 ('Where you lead I will follow') 32bit
_STATISTICS_WRITING_DATE_UTC : 2016-08-23 19:39:40
_STATISTICS_TAGS : BPS DURATION NUMBER_OF_FRAMES NUMBER_OF_BYTES
Video
ID : 1
Format : AVC
Format/Info : Advanced Video Codec
Format profile : Main@L3.0
Format settings, CABAC : Yes
Format settings, ReFrames : 4 frames
Format settings, GOP : M=4, N=24
Codec ID : V_MPEG4/ISO/AVC
Duration : 1h 37mn
Bit rate : 2 185 Kbps
Width : 720 pixels
Height : 576 pixels
Display aspect ratio : 4:3
Original display aspect ratio : 4:3
Frame rate mode : Constant
Frame rate : 25.000 fps
Standard : PAL
Color space : YUV
Chroma subsampling : 4:2:0
Bit depth : 8 bits
Scan type : MBAFF
Scan order : Top Field First
Bits/(Pixel*Frame) : 0.211
Stream size : 1.49 GiB (83%)
Default : Yes
Forced : No
Color primaries : BT.601 PAL
Transfer characteristics : BT.470 System B, BT.470 System G
Matrix coefficients : BT.601
Color range : Limited
Audio #1
ID : 2
Format : MPEG Audio
Format version : Version 1
Format profile : Layer 2
Codec ID : A_MPEG/L2
Codec ID/Hint : MP2
Duration : 1h 37mn
Bit rate mode : Constant
Bit rate : 256 Kbps
Channel(s) : 2 channels
Sampling rate : 48.0 KHz
Compression mode : Lossy
Delay relative to video : 350ms
Stream size : 179 MiB (10%)
Language : Russian
Default : Yes
Forced : No
Audio #2
ID : 3
Format : MPEG Audio
Format version : Version 1
Format profile : Layer 3
Mode : Joint stereo
Mode extension : MS Stereo
Codec ID : A_MPEG/L3
Codec ID/Hint : MP3
Duration : 1h 37mn
Bit rate mode : Constant
Bit rate : 128 Kbps
Channel(s) : 2 channels
Sampling rate : 48.0 KHz
Compression mode : Lossy
Stream size : 89.6 MiB (5%)
Language : Belarusian
Default : No
Forced : No




   Похожие торренты   Торрент   Размер 
В этой теме нет новых непрочитанных сообщений. Мать урагана / Мацi ўрагану (1990) SATRip от AND03AND

6 | 6

1.42 ГБ

В этой теме нет новых непрочитанных сообщений. Мать урагана / Мацi ўрагану (1990) SATRip от AND03AND

10 | 4

1.51 ГБ

В этой теме нет новых непрочитанных сообщений. Крестная мать 2 / Vendetta: Secrets of a Mafia Bride [S01] (1990) SATRip | P2

20 | 5

4.03 ГБ

В этой теме нет новых непрочитанных сообщений. Мать Слез / Третья мать / La Terza madre (2007) DVDRip от Киномагии

6 | 3

1.37 ГБ

В этой теме нет новых непрочитанных сообщений. Мать Cлез / Третья мать / La Terza madre / Mother of Tears (2007) BDRip от HQCLUB

1 | 1

2.18 ГБ

В этой теме нет новых непрочитанных сообщений. Одна ночь (1990) SATRip от AND03AND

37 | 6

699.96 МБ

В этой теме нет новых непрочитанных сообщений. Опера - Франциск Скорина / Францыск Скарына [BLR] (1990) DVB от AND03AND

2 | 1

1.22 ГБ




Вы не можете начинать темы
Вы не можете отвечать на сообщения
Вы не можете редактировать свои сообщения
Вы не можете удалять свои сообщения
Вы не можете добавлять вложения

Перейти:  
Для Мосгорсуда, Роскомнадзора и рекламодателей: mosgorsud-torrent[собачка]yandex.ru
 Вход
ppkBB3cker v.2 © 2008-2014 @ PPK
[ Time : 0.035s | 15 Queries | GZIP : Off ]

Торрент трекер RUTOR.IN, Не можете зайти на rutor.org? Какой новый адрес рутор? Какое зеркало рутор? Не работает rutor.org и зеркала? Тогда наш торрент специально для вас. Rutor.in неофициальное зеркало rutor. В случае если у Вас заблокирован rutor или вдруг Вы не можете на него зайти, то Вы без труда сможете скачать бесплатно и без рекламы последние новинки кино, игр, сериалов и прочего у нас, на Rutor.in. Не нужно использовать прокси, чтобы зайти на рутор, достаточно воспользоваться нашим ресурсом. Все новые фильмы, игры, сериалы, книги и музыка за 2013 и 2014 годы через торрент бесплатно. Скачивайте фильмы в хорошем качестве, игры для пк, xbox, playstation без регистрации. У нас вы найдете новые Зарубежные сериалы и Русские сериалы 2013, 2014, 2015 годов. Оставайтесь с нами, качайте любимые фильмы, игры, сериалы, книги и музыку.