img image001 image001 image001 image001 image001 image001 image001 image001 image001 image001 image001 image001 image001 image001 image001

Planets Sun Sun Sun
Статистика раздачи
Автор: PriZraK | Размер: 1.37 ГБ | Добавлен: 26 авг 2016
Раздают: 10584    Качают: 671
Скачать торрент
Скачать торрент
Описание торрента

СообщениеДобавлено: 26 авг 2016 


Информация о фильме
Название: Простая история
Год выхода: 2016
Жанр: Боевик, военный, драма, мелодрама
Режиссер: Виктор Татарский
В ролях: Сергей Марин, Анастасия Тюнина, Екатерина Проскурина, Михаил Елисеев, Евгений Сидихин, Юсуп Бахшиев, Евгений Добряков, Алексей Красноцветов, Дмитрий Быковский-Ромашов
О фильме:
Вячеслав Воробьев — боец особого подразделения ОМОН. По стечению обстоятельств после одного из спецзаданий сослуживцы и командиры начинают подозревать Вячеслава в гибели товарища. Желая реабилитироваться перед ними и вновь заслужить доверие, главный герой вызывается во внеочередную опасную командировку в город Назрань. Там он знакомится с девушкой Наташей, в которую влюбляется с первого взгляда. Наташа принимает ухаживания молодого человека, и у них завязываются отношения. Но Слава скрывает место своей работы и цели командировки. Правду Наташа узнает только в тот момент, когда Слава отправляется на самое опасное боевое задание в своей жизни.

Страна: Россия
Студия: Фонд кино
Продолжительность: 01:30:02
Перевод: Не требуется
Файл
Качество: WEB-DLRip
Кодек: XviD
Видео: 720x304 (2,35:1), 25 fps, XviD ~1972 Кbps avg, 0.360 bit/pixel
Аудио: AC3, 48 kHz, 2 ch, ~192.00 kbps avg | русский
Субтитры: Отсутствуют
Семпл
Общее
Полное имя : Prostaya.istoriya.2O16.WEBDLRip.avi
Формат : AVI
Формат/Информация : Audio Video Interleave
Размер файла : 1,37 Гбайт
Продолжительность : 1 ч. 30 м.
Общий поток : 2173 Кбит/сек
Программа кодирования : VirtualDubMod 1.5.10.3 | www.virtualdub-fr.org || (build 2550/release)
Библиотека кодирования : VirtualDubMod build 2550/release
Видео
Идентификатор : 0
Формат : MPEG-4 Visual
Профиль формата : Advanced Simple@L5
Параметр BVOP формата : 2
Параметр QPel формата : Нет
Параметр GMC формата : Без точки перехода
Параметр матрицы формата : Default (MPEG)
Идентификатор кодека : XVID
Идентификатор кодека/Подсказка : XviD
Продолжительность : 1 ч. 30 м.
Битрейт : 1972 Кбит/сек
Ширина : 720 пикселей
Высота : 304 пикселя
Соотношение сторон : 2,35:1
Частота кадров : 25,000 кадров/сек
Цветовое пространство : YUV
Субдискретизация насыщенности : 4:2:0
Битовая глубина : 8 бит
Тип развёртки : Прогрессивная
Метод сжатия : С потерями
Бит/(Пиксели*Кадры) : 0.360
Размер потока : 1,24 Гбайт (91%)
Библиотека кодирования : XviD 1.2.1 (UTC 2008-12-04)
Аудио
Идентификатор : 1
Формат : AC-3
Формат/Информация : Audio Coding 3
Расширение режима : CM (complete main)
Параметр Endianness формата : Big
Идентификатор кодека : 2000
Продолжительность : 1 ч. 30 м.
Вид битрейта : Постоянный
Битрейт : 192 Кбит/сек
Каналы : 2 канала
Расположение каналов : Front: L R
Частота : 48,0 КГц
Частота кадров : 31,250 кадров/сек (1536 spf)
Метод сжатия : С потерями
Размер потока : 124 Мбайт (9%)
Выравнивание : Разделение по промежуткам
Продолжительность промежутка : 40 мс. (1,00 видеокадр)
Время предзагрузки промежутка : 500 мс.



   Похожие торренты   Торрент   Размер 
В этой теме нет новых непрочитанных сообщений. Простая история (2016) WEB-DLRip от GeneralFilm

927 | 63

743.41 МБ

В этой теме нет новых непрочитанных сообщений. Простая история (2016) WEB-DLRip от torrentfilm

286 | 8

749.93 МБ

В этой теме нет новых непрочитанных сообщений. Простая история (2016) WEB-DLRip от Generalfilm | КПК

189 | 13

374.79 МБ

В этой теме нет новых непрочитанных сообщений. Простая история (2016) WEB-DLRip-AVC от ExKinoRay

0 | 0

1.28 ГБ

В этой теме нет новых непрочитанных сообщений. Простая история (2016) WEB-DL 720p

155 | 16

1.74 ГБ

В этой теме нет новых непрочитанных сообщений. Простая история (2016) WEB-DL 1080p

1421 | 68

2.64 ГБ

В этой теме нет новых непрочитанных сообщений. Простая история (1960) DVDRip-AVC

212 | 18

1.59 ГБ




Вы не можете начинать темы
Вы не можете отвечать на сообщения
Вы не можете редактировать свои сообщения
Вы не можете удалять свои сообщения
Вы не можете добавлять вложения

Перейти:  
Для Мосгорсуда, Роскомнадзора и рекламодателей: mosgorsud-torrent[собачка]yandex.ru
 Вход
ppkBB3cker v.2 © 2008-2014 @ PPK
[ Time : 0.024s | 14 Queries | GZIP : Off ]

Торрент трекер RUTOR.IN, Не можете зайти на rutor.org? Какой новый адрес рутор? Какое зеркало рутор? Не работает rutor.org и зеркала? Тогда наш торрент специально для вас. Rutor.in неофициальное зеркало rutor. В случае если у Вас заблокирован rutor или вдруг Вы не можете на него зайти, то Вы без труда сможете скачать бесплатно и без рекламы последние новинки кино, игр, сериалов и прочего у нас, на Rutor.in. Не нужно использовать прокси, чтобы зайти на рутор, достаточно воспользоваться нашим ресурсом. Все новые фильмы, игры, сериалы, книги и музыка за 2013 и 2014 годы через торрент бесплатно. Скачивайте фильмы в хорошем качестве, игры для пк, xbox, playstation без регистрации. У нас вы найдете новые Зарубежные сериалы и Русские сериалы 2013, 2014, 2015 годов. Оставайтесь с нами, качайте любимые фильмы, игры, сериалы, книги и музыку.