img image001 image001 image001 image001 image001 image001 image001 image001 image001 image001 image001 image001 image001 image001 image001

Planets Sun Sun Sun
Статистика раздачи
Автор: PriZraK | Размер: 746.1 МБ | Добавлен: 26 авг 2016
Раздают: 210    Качают: 18
Скачать торрент
Скачать торрент
Описание торрента

СообщениеДобавлено: 26 авг 2016 


Информация о фильме
Название: Сибирский траффик
Год выхода: 2015
Жанр: Боевик, криминал
Режиссер: Сергей Грозных
В ролях: Николай Устинов, Анна Захарова, Олег Захаров, Елена Бессмертная, Екатерина Спирина, Михаил Попов, Равиль Валиев, Евгений Писанков...
О фильме:
Офицер в отставке Руслан Бероев выходит на пенсию, и казалось, что суровые будни закончены. Один за другим начинают пропадать сотрудники спецотдела и бывший сослуживец просит Руслана о помощи в раскрытии преступлений. Бероев не ожидал, что эта помощь обернётся для него войной, войной за себя, за свою семью и свою страну.

Страна: Россия
Студия: КиноОлимп, Сибирь
Продолжительность: 01:29:18
Файл
Кодек: XviD (AVI)
Качество: WEB-DLRip
Видео: 688x288 (2.40:1), 25 fps, XviD build 73 ~1030 kbps avg, 0.208 bit/pixel
Звук: 48 kHz, MPEG Layer 3, 2 ch, ~128.00 kbps avg
General
Complete name : Sibirskij.Traffik.2015.XviD.WEB-DLRip.by.GeneralFilm.avi
Format : AVI
Format/Info : Audio Video Interleave
File size : 746 MiB
Duration : 1h 29mn
Overall bit rate : 1 168 Kbps
Writing application : VirtualDubMod 1.5.10.3 | www.virtualdub-fr.org || (build 2550/release)
Writing library : VirtualDubMod build 2550/release
Video
ID : 0
Format : MPEG-4 Visual
Format profile : Advanced Simple@L5
Format settings, BVOP : 1
Format settings, QPel : No
Format settings, GMC : No warppoints
Format settings, Matrix : Custom
Codec ID : XVID
Codec ID/Hint : XviD
Duration : 1h 29mn
Bit rate : 1 030 Kbps
Width : 688 pixels
Height : 288 pixels
Display aspect ratio : 2.40:1
Frame rate : 25.000 fps
Color space : YUV
Chroma subsampling : 4:2:0
Bit depth : 8 bits
Scan type : Progressive
Compression mode : Lossy
Bits/(Pixel*Frame) : 0.208
Stream size : 658 MiB (88%)
Writing library : XviD 73
Audio
ID : 1
Format : MPEG Audio
Format version : Version 1
Format profile : Layer 3
Codec ID : 55
Codec ID/Hint : MP3
Duration : 1h 29mn
Bit rate mode : Constant
Bit rate : 128 Kbps
Channel(s) : 2 channels
Sampling rate : 44.1 KHz
Compression mode : Lossy
Stream size : 81.8 MiB (11%)
Alignment : Split accross interleaves
Interleave, duration : 40 ms (1.00 video frame)
Interleave, preload duratio : 500 ms
Writing library : LAME3.99r
Encoding settings : -m s -V 4 -q 0 -lowpass 17 -b 128







Релиз от:



   Похожие торренты   Торрент   Размер 
В этой теме нет новых непрочитанных сообщений. Сибирский траффик (2015) WEB-DLRip

7690 | 453

1.37 ГБ

В этой теме нет новых непрочитанных сообщений. Сибирский траффик (2015) WEB-DLRip-AVC от ExKinoRay

257 | 5

1.22 ГБ

В этой теме нет новых непрочитанных сообщений. Сибирский траффик (2015) WEB-DLRip от torrentfilm

316 | 20

750.28 МБ

В этой теме нет новых непрочитанных сообщений. Траффик / Traffic (2000) BDRip

296 | 5

1.46 ГБ

В этой теме нет новых непрочитанных сообщений. Сибирский дед (1973) VHSRip

176 | 5

1.37 ГБ

В этой теме нет новых непрочитанных сообщений. Траффик / Traffic (2000) BDRip от HQCLUB

4 | 1

2.91 ГБ

В этой теме нет новых непрочитанных сообщений. Траффик / Traffic (2000) BDRemux 1080p | D | A

24 | 22

26.99 ГБ




Вы не можете начинать темы
Вы не можете отвечать на сообщения
Вы не можете редактировать свои сообщения
Вы не можете удалять свои сообщения
Вы не можете добавлять вложения

Перейти:  
Для Мосгорсуда, Роскомнадзора и рекламодателей: mosgorsud-torrent[собачка]yandex.ru
 Вход
ppkBB3cker v.2 © 2008-2014 @ PPK
[ Time : 0.022s | 14 Queries | GZIP : Off ]

Торрент трекер RUTOR.IN, Не можете зайти на rutor.org? Какой новый адрес рутор? Какое зеркало рутор? Не работает rutor.org и зеркала? Тогда наш торрент специально для вас. Rutor.in неофициальное зеркало rutor. В случае если у Вас заблокирован rutor или вдруг Вы не можете на него зайти, то Вы без труда сможете скачать бесплатно и без рекламы последние новинки кино, игр, сериалов и прочего у нас, на Rutor.in. Не нужно использовать прокси, чтобы зайти на рутор, достаточно воспользоваться нашим ресурсом. Все новые фильмы, игры, сериалы, книги и музыка за 2013 и 2014 годы через торрент бесплатно. Скачивайте фильмы в хорошем качестве, игры для пк, xbox, playstation без регистрации. У нас вы найдете новые Зарубежные сериалы и Русские сериалы 2013, 2014, 2015 годов. Оставайтесь с нами, качайте любимые фильмы, игры, сериалы, книги и музыку.