img image001 image001 image001 image001 image001 image001 image001 image001 image001 image001 image001 image001 image001 image001 image001

Planets Sun Sun Sun
Статистика раздачи
Автор: PriZraK | Размер: 743.41 МБ | Добавлен: 26 авг 2016
Раздают: 782    Качают: 54
Скачать торрент
Скачать торрент
Описание торрента

СообщениеДобавлено: 26 авг 2016 


Информация о фильме
Название: Простая история
Год выхода: 2016
Жанр: Боевик, военный, драма
Режиссер: Виктор Татарский
В ролях: Сергей Марин, Анастасия Тюнина, Екатерина Проскурина, Михаил Елисеев, Евгений Сидихин, Юсуп Бахшиев, Евгений Добряков, Алексей Красноцветов, Дмитрий Быковский-Ромашов...
О фильме:
Вячеслав Воробьев - боец особого подразделения ОМОН. По стечению обстоятельств после одного из спецзаданий сослуживцы и командиры начинают подозревать Вячеслава в гибели товарища. Желая реабилитироваться перед ними и вновь заслужить доверие, главный герой вызывается во внеочередную опасную командировку в город Назрань. Там он знакомится с девушкой Наташей, в которую влюбляется с первого взгляда. Наташа принимает ухаживания молодого человека, и у них завязываются отношения. Но Слава скрывает место своей работы и цели командировки. Правду Наташа узнает только в тот момент, когда Слава отправляется на самое опасное боевое задание в своей жизни.

Страна: Россия
Студия: Фонд кино
Продолжительность: 01:30:02
Файл
Кодек: XviD (AVI)
Качество: WEB-DLRip
Видео: 672x288 (2.35:1), 25 fps, XviD build 73, 1017 kbps avg, 0.210 bit/pixel
Звук: 48 kHz, MPEG Layer 3, 2 ch, 128.00 kbps avg
General
Complete name : Prostaja.Istorija.2016.XviD.WEB-DLRip.by.GeneralFilm.avi
Format : AVI
Format/Info : Audio Video Interleave
File size : 743 MiB
Duration : 1h 30mn
Overall bit rate : 1 154 Kbps
Writing application : VirtualDubMod 1.5.10.3 | www.virtualdub-fr.org || (build 2550/release)
Writing library : VirtualDubMod build 2550/release
Video
ID : 0
Format : MPEG-4 Visual
Format profile : Advanced Simple@L5
Format settings, BVOP : 1
Format settings, QPel : No
Format settings, GMC : No warppoints
Format settings, Matrix : Custom
Codec ID : XVID
Codec ID/Hint : XviD
Duration : 1h 30mn
Bit rate : 1 017 Kbps
Width : 672 pixels
Height : 288 pixels
Display aspect ratio : 2.35:1
Frame rate : 25.000 fps
Color space : YUV
Chroma subsampling : 4:2:0
Bit depth : 8 bits
Scan type : Progressive
Compression mode : Lossy
Bits/(Pixel*Frame) : 0.210
Stream size : 655 MiB (88%)
Writing library : XviD 73
Audio
ID : 1
Format : MPEG Audio
Format version : Version 1
Format profile : Layer 3
Codec ID : 55
Codec ID/Hint : MP3
Duration : 1h 30mn
Bit rate mode : Constant
Bit rate : 128 Kbps
Channel(s) : 2 channels
Sampling rate : 48.0 KHz
Compression mode : Lossy
Stream size : 82.4 MiB (11%)
Alignment : Aligned on interleaves
Interleave, duration : 40 ms (1.00 video frame)
Interleave, preload duratio : 504 ms
Writing library : LAME3.99r
Encoding settings : -m s -V 4 -q 0 -lowpass 17 -b 128







Релиз от:



   Похожие торренты   Торрент   Размер 
В этой теме нет новых непрочитанных сообщений. Простая история (2016) WEB-DLRip от Generalfilm | КПК

189 | 13

374.79 МБ

В этой теме нет новых непрочитанных сообщений. Простая история (2016) WEB-DLRip

9969 | 644

1.37 ГБ

В этой теме нет новых непрочитанных сообщений. Простая история (2016) WEB-DLRip от torrentfilm

286 | 8

749.93 МБ

В этой теме нет новых непрочитанных сообщений. Простая история (2016) WEB-DLRip-AVC от ExKinoRay

0 | 0

1.28 ГБ

В этой теме нет новых непрочитанных сообщений. Простая история (2016) WEB-DLRip от MegaPeer

20 | 5

1.46 ГБ

В этой теме нет новых непрочитанных сообщений. Простая история (2016) WEB-DLRip 720p от MegaPeer

25 | 0

1.9 ГБ

В этой теме нет новых непрочитанных сообщений. Совсем не простая история (2013) WEB-DLRip от ImperiaFilm

3 | 0

746.42 МБ




Вы не можете начинать темы
Вы не можете отвечать на сообщения
Вы не можете редактировать свои сообщения
Вы не можете удалять свои сообщения
Вы не можете добавлять вложения

Перейти:  
Для Мосгорсуда, Роскомнадзора и рекламодателей: mosgorsud-torrent[собачка]yandex.ru
 Вход
ppkBB3cker v.2 © 2008-2014 @ PPK
[ Time : 0.049s | 17 Queries | GZIP : Off ]

cron