img image001 image001 image001 image001 image001 image001 image001 image001 image001 image001 image001 image001 image001 image001 image001

Planets Sun Sun Sun
Статистика раздачи
Автор: PriZraK | Размер: 745.35 МБ | Добавлен: 27 авг 2016
Раздают: 24    Качают: 7
Скачать торрент
Скачать торрент
Описание торрента

СообщениеДобавлено: 27 авг 2016 

Страна: СССР
Производство: Беларусьфильм
Жанр: драма
Год выпуска: 1955
Продолжительность: 01:22:01
Перевод: Не требуется
Cубтитры: нет
Оригинальная аудиодорожка: русский
Режиссер: Иосиф Шульман, Сергей Сплошнов
В ролях:
Геннадий Малышев, Борис Терентьев, Александр Кистов, Евгений Карнаухов, Маргарита Лифанова, Валентина Ушакова, Георгий Гумилевский, Глеб Глебов, Юрий Галкин (II), Рита Гладунко, А. Зотов, Тамара Трушина...
Полный список актёров
Описание:
Действие происходит на одном из железнодорожных узлов Белоруссии. Молодой машинист грузового поезда Сергей Чобур на свой страх и риск совершает первый рейс с превышением весовых норм. В пути обнаруживается неисправность машины. Занявшись на ходу ремонтом, бригада допускает нарушение правил технической эксплуатации, и Чобура снимают с работы. При активном участии начальника политотдела Якушева опыт Чобура удается успешно повторить, и Сергея возвращают на паровоз. Этому обстоятельству более всего рады две девушки-железнодорожницы — инженер Людмила и диспетчер Оксана...





Источник: DVD R5
Качество видео: DVDRip
Формат видео: AVI
Видео: 640x480 (4:3), 25 fps, XviD ~ 1133 kbps avg, 0.147 bit/pixel
Аудио: 48 kHz, MP3 2.0, 128 kbps
Раздача от:
Общее
Полное имя : Zelyonye.ogni.1955.DVDRip-745_[New-team]_by_AVP_Studio.avi
Формат : AVI
Формат/Информация : Audio Video Interleave
Размер файла : 745 Мбайт
Продолжительность : 1 ч. 22 м.
Общий поток : 1271 Кбит/сек
Программа кодирования : VirtualDubMod 1.5.10.3 | www.virtualdub-fr.org || (build 2550/release)
Библиотека кодирования : VirtualDubMod build 2550/release
Видео
Идентификатор : 0
Формат : MPEG-4 Visual
Профиль формата : Advanced Simple@L5
Параметр BVOP формата : 1
Параметр QPel формата : Нет
Параметр GMC формата : Без точки перехода
Параметр матрицы формата : Выборочная
Идентификатор кодека : XVID
Идентификатор кодека/Подсказка : XviD
Продолжительность : 1 ч. 22 м.
Битрейт : 1133 Кбит/сек
Ширина : 640 пикселей
Высота : 480 пикселей
Соотношение сторон : 4:3
Частота кадров : 25,000 кадров/сек
Цветовое пространство : YUV
Субдискретизация насыщенности : 4:2:0
Битовая глубина : 8 бит
Тип развёртки : Прогрессивная
Метод сжатия : С потерями
Бит/(Пиксели*Кадры) : 0.147
Размер потока : 665 Мбайт (89%)
Библиотека кодирования : XviD 1.2.1 (UTC 2008-12-04)
Аудио
Идентификатор : 1
Формат : MPEG Audio
Версия формата : Version 1
Профиль формата : Layer 3
Идентификатор кодека : 55
Идентификатор кодека/Подсказка : MP3
Продолжительность : 1 ч. 22 м.
Вид битрейта : Постоянный
Битрейт : 128 Кбит/сек
Каналы : 2 канала
Частота : 48,0 КГц
Метод сжатия : С потерями
Размер потока : 75,1 Мбайт (10%)
Выравнивание : Соединение по промежуткам
Продолжительность промежутка : 40 мс. (1,00 видеокадр)
Время предзагрузки промежутка : 504 мс.
Библиотека кодирования : LAME3.99r
Настройки программы : -m s -V 4 -q 2 -lowpass 17 -b 128





   Похожие торренты   Торрент   Размер 
В этой теме нет новых непрочитанных сообщений. Зелёные огни (1955) DVDRip-AVC от New-Team

35 | 6

1.09 ГБ

В этой теме нет новых непрочитанных сообщений. Зелёные огни (1955) DVDRip от New-Team

5 | 5

1.09 ГБ

В этой теме нет новых непрочитанных сообщений. Зелёные огни (1955) DVDRip

14 | 5

1.27 ГБ

В этой теме нет новых непрочитанных сообщений. Огни Баку (1950) DVDRip от New-Team

29 | 4

1.09 ГБ

В этой теме нет новых непрочитанных сообщений. Огни Баку (1950) DVDRip от New-Team

27 | 5

743.63 МБ

В этой теме нет новых непрочитанных сообщений. Огни на реке (1953) DVDRip от New-Team

33 | 9

1.09 ГБ

В этой теме нет новых непрочитанных сообщений. Огни на реке (1953) DVDRip от New-Team

32 | 4

744.68 МБ




Вы не можете начинать темы
Вы не можете отвечать на сообщения
Вы не можете редактировать свои сообщения
Вы не можете удалять свои сообщения
Вы не можете добавлять вложения

Перейти:  
Для Мосгорсуда, Роскомнадзора и рекламодателей: mosgorsud-torrent[собачка]yandex.ru
 Вход
ppkBB3cker v.2 © 2008-2014 @ PPK
[ Time : 0.545s | 16 Queries | GZIP : On ]

Торрент трекер RUTOR.IN, Не можете зайти на rutor.org? Какой новый адрес рутор? Какое зеркало рутор? Не работает rutor.org и зеркала? Тогда наш торрент специально для вас. Rutor.in неофициальное зеркало rutor. В случае если у Вас заблокирован rutor или вдруг Вы не можете на него зайти, то Вы без труда сможете скачать бесплатно и без рекламы последние новинки кино, игр, сериалов и прочего у нас, на Rutor.in. Не нужно использовать прокси, чтобы зайти на рутор, достаточно воспользоваться нашим ресурсом. Все новые фильмы, игры, сериалы, книги и музыка за 2013 и 2014 годы через торрент бесплатно. Скачивайте фильмы в хорошем качестве, игры для пк, xbox, playstation без регистрации. У нас вы найдете новые Зарубежные сериалы и Русские сериалы 2013, 2014, 2015 годов. Оставайтесь с нами, качайте любимые фильмы, игры, сериалы, книги и музыку.