img image001 image001 image001 image001 image001 image001 image001 image001 image001 image001 image001 image001 image001 image001 image001

Planets Sun Sun Sun
Статистика раздачи
Автор: PriZraK | Размер: 1.86 ГБ | Добавлен: 28 авг 2016
Раздают: 21    Качают: 1
Скачать торрент
Скачать торрент
Описание торрента

СообщениеДобавлено: 28 авг 2016 

Информация о фильме
Название: Мама
Год выхода: 1976
Жанр: Музыкальный, сказка
Режиссер: Элизабет Бостан
В ролях: Людмила Гурченко, Михаил Боярский, Олег Попов, Савелий Крамаров, Валентин Манохин, Джордже Михаица, Флориан Питиш, Вера Ивлева, Евгений Герчаков, Наталья Крачковская, Марина Поляк, Виолетта Андрей, Паула Радулеску, Василе Менцель, Лилиана Петреску, Лулу Михаеску, Петя Дегтярев, Тимур Асалиев, Адриан Кристя, Матей Оприш, Т.Владимирцева, В.Кирсанов, Т.Бучучану-Ботез, П.Лисиченко, Т.Гросс, Г.Холопова, А.Иванова, В.Бабицкий, Т.Войтюк, З.Шакиров, Т.Немцова, Виолетта Андреева, Светлана Вагина, Наташа Гурушина, Яна Иванова, Артем Кретов, Эльза Кириллова, Саша Левченко, Оля Лопаева, Галя Миронова, Оксана Мерзликина, Катя Олонова, Лена Петрова, Инна Пронкина, Марина Сизова, Дима Скрынников, Дима Токар, Олег Царьков, Оля Шведова, Светлана Яшенкова, Саша Щеболева
О фильме:
Незатейливый сюжет старой сказки о Волке, который обманом выкрал у Козы ее козлят, предстаёт в новой, остроумной и занимательной музыкальной интерпретации, созданной международным творческим коллективом.

Страна: СССР, Франция, Румыния
Студия: Мосфильм-Второе творческое объединение, Социалистическая Республика Румыния- Букурешть, Франция-Ралюкс-Фильм
Продолжительность: 01:23:10
Перевод: Не требуется
Файл
Качество: HDTVRip (720p)
Видео: MPEG-4 AVC, 3010 Кбит/с, 1024x484
Аудио: AC3, 2 ch, 192 Кбит/с
General
Unique ID : 233549485850007006268078760790754707656 (0xAFB3FEAD250576FB92054AC30699C8C8)
Complete name : E:Mama.1976.AVC.ExKinoRay.mkv
Format : Matroska
Format version : Version 2
File size : 1.86 GiB
Duration : 1 h 23 min
Overall bit rate : 3 204 kb/s
Movie name : Mama 1976 from ExKinoRay
Encoded date : UTC 2016-08-27 03:42:06
Writing application : mkvmerge v7.6.0 ('Garden of Dreams') 32bit built on Feb 11 2015 00:18:47
Writing library : libebml v1.3.1 + libmatroska v1.4.2
Video
ID : 1
Format : AVC
Format/Info : Advanced Video Codec
Format profile : High@L4.1
Format settings, CABAC : Yes
Format settings, ReFrames : 12 frames
Codec ID : V_MPEG4/ISO/AVC
Duration : 1 h 23 min
Bit rate : 3 010 kb/s
Width : 1 024 pixels
Height : 484 pixels
Display aspect ratio : 2.116
Frame rate mode : Constant
Frame rate : 25.000 FPS
Color space : YUV
Chroma subsampling : 4:2:0
Bit depth : 8 bits
Scan type : Progressive
Bits/(Pixel*Frame) : 0.243
Stream size : 1.71 GiB (92%)
Title : Enigma
Writing library : x264 core 144 r2525 40bb568
Encoding settings : cabac=1 / ref=12 / deblock=1:-2:-2 / analyse=0x3:0x113 / me=umh / subme=10 / psy=1 / psy_rd=1.00:0.10 / mixed_ref=1 / me_range=32 / chroma_me=1 / trellis=2 / 8x8dct=1 / cqm=0 / deadzone=21,11 / fast_pskip=0 / chroma_qp_offset=-3 / threads=12 / lookahead_threads=2 / sliced_threads=0 / nr=0 / decimate=0 / interlaced=0 / bluray_compat=0 / constrained_intra=0 / bframes=9 / b_pyramid=2 / b_adapt=2 / b_bias=0 / direct=3 / weightb=1 / open_gop=0 / weightp=2 / keyint=250 / keyint_min=25 / scenecut=40 / intra_refresh=0 / rc=2pass / mbtree=0 / bitrate=3010 / ratetol=1.0 / qcomp=0.65 / qpmin=0 / qpmax=51 / qpstep=4 / cplxblur=20.0 / qblur=0.5 / ip_ratio=1.40 / pb_ratio=1.30 / aq=1:1.00
Language : English
Default : Yes
Forced : No
Color range : Limited
Color primaries : BT.709
Transfer characteristics : BT.709
Matrix coefficients : BT.709
Audio
ID : 2
Format : AC-3
Format/Info : Audio Coding 3
Mode extension : CM (complete main)
Format settings, Endianness : Big
Codec ID : A_AC3
Duration : 1 h 23 min
Bit rate mode : Constant
Bit rate : 192 kb/s
Channel(s) : 2 channels
Channel positions : Front: L R
Sampling rate : 48.0 kHz
Frame rate : 31.250 FPS (1536 spf)
Compression mode : Lossy
Stream size : 114 MiB (6%)
Language : Russian
Default : Yes
Forced : No


Релиз от:
Автор релиза:



   Похожие торренты   Торрент   Размер 
В этой теме нет новых непрочитанных сообщений. Мама (1976) HDTVRip от Шкипер

321 | 8

743.89 МБ

В этой теме нет новых непрочитанных сообщений. Мама (1976) HDTVRip 720p

929 | 23

1.96 ГБ

В этой теме нет новых непрочитанных сообщений. Мама (1976) DVDRip

75 | 15

1.47 ГБ

В этой теме нет новых непрочитанных сообщений. Мама / Ma-ma (1976) DVDRip от ENGINEER

378 | 37

1.46 ГБ

В этой теме нет новых непрочитанных сообщений. Мы вместе, мама (1976) IPTVRip

0 | 4

700.02 МБ

В этой теме нет новых непрочитанных сообщений. Мама (1976) DVD5 by гаврила

35 | 3

4.32 ГБ

В этой теме нет новых непрочитанных сообщений. Стой! Или моя мама будет стрелять / Stop! Or My Mom Will Shoot (1992) HDTVRip от ExKinoRay

50 | 7

1.37 ГБ




Вы не можете начинать темы
Вы не можете отвечать на сообщения
Вы не можете редактировать свои сообщения
Вы не можете удалять свои сообщения
Вы не можете добавлять вложения

Перейти:  
Для Мосгорсуда, Роскомнадзора и рекламодателей: mosgorsud-torrent[собачка]yandex.ru
 Вход
ppkBB3cker v.2 © 2008-2014 @ PPK
[ Time : 0.022s | 18 Queries | GZIP : On ]

Торрент трекер RUTOR.IN, Не можете зайти на rutor.org? Какой новый адрес рутор? Какое зеркало рутор? Не работает rutor.org и зеркала? Тогда наш торрент специально для вас. Rutor.in неофициальное зеркало rutor. В случае если у Вас заблокирован rutor или вдруг Вы не можете на него зайти, то Вы без труда сможете скачать бесплатно и без рекламы последние новинки кино, игр, сериалов и прочего у нас, на Rutor.in. Не нужно использовать прокси, чтобы зайти на рутор, достаточно воспользоваться нашим ресурсом. Все новые фильмы, игры, сериалы, книги и музыка за 2013 и 2014 годы через торрент бесплатно. Скачивайте фильмы в хорошем качестве, игры для пк, xbox, playstation без регистрации. У нас вы найдете новые Зарубежные сериалы и Русские сериалы 2013, 2014, 2015 годов. Оставайтесь с нами, качайте любимые фильмы, игры, сериалы, книги и музыку.