img image001 image001 image001 image001 image001 image001 image001 image001 image001 image001 image001 image001 image001 image001 image001

Planets Sun Sun Sun
Статистика раздачи
Автор: PriZraK | Размер: 1.45 ГБ | Добавлен: 28 авг 2016
Раздают: 63    Качают: 4
Скачать торрент
Скачать торрент
Описание торрента

СообщениеДобавлено: 28 авг 2016 


Информация о фильме
Название: Не бойся, я с тобой!
Год выхода: 1981
Жанр: Боевик, приключения
Режиссёр: Юлий Гусман
В ролях: Мухтарбек Кантемиров, Лев Дуров, Полад Бюль-Бюль оглы, Гамида Омарова, Гасанага Турабов, Мирза Бабаев, Сергей Юрский, Мухтар Маниев, Александр Шаровский, Джафар Новрузов, Насиба Зейналова, Садых Гусейнов
О фильме: Начало XX века. Российская империя, Азербайджан. Герои фильма, артисты цирка Рустам и Сан Саныч, приезжают на родину Рустама. Втянутые, помимо своей воли, в любовную историю певца Теймура и дочери Фарзали-бека Телли, они помогают им обмануть жадного отца девушки...

Страна: СССР
Студия: Азербайджанфильм
Продолжительность: 02:25:44
Перевод: Не требуется (оригинальный)
Файл
Формат: avi
Качество: HDTVRip (HDTV.1080i)
Видео: XviD, 640х496, 25fps, 1289kbps
Аудио: MPEG Layer 3, 2ch, 48000Hz, 128kbps

General
Complete name : Ne.Boisa.A.S.Toboi.1981.O.HDTVRip.1400.CurHaJI.avi
Format : AVI
Format/Info : Audio Video Interleave
File size : 1.45 GiB
Duration : 2h 25mn
Overall bit rate : 1 427 Kbps
Movie name : Ne.Boisa.A.S.Toboi.1981.O.HDTVRip.1400.CurHaJI
Writing application : VirtualDubMod 1.5.10.3 | www.virtualdub-fr.org || (build 2550/release)
Writing library : VirtualDub build 35491/release
Video
ID : 0
Format : MPEG-4 Visual
Format profile : Advanced Simple@L5
Format settings, BVOP : 2
Format settings, QPel : No
Format settings, GMC : No warppoints
Format settings, Matrix : Custom
Codec ID : XVID
Codec ID/Hint : XviD
Duration : 2h 25mn
Bit rate : 1 289 Kbps
Width : 640 pixels
Height : 496 pixels
Display aspect ratio : 1.290
Frame rate : 25.000 fps
Color space : YUV
Chroma subsampling : 4:2:0
Bit depth : 8 bits
Scan type : Progressive
Compression mode : Lossy
Bits/(Pixel*Frame) : 0.162
Stream size : 1.31 GiB (90%)
Writing library : XviD 73
Audio
ID : 1
Format : MPEG Audio
Format version : Version 1
Format profile : Layer 3
Codec ID : 55
Codec ID/Hint : MP3
Duration : 2h 25mn
Bit rate mode : Constant
Bit rate : 128 Kbps
Channel(s) : 2 channels
Sampling rate : 48.0 KHz
Compression mode : Lossy
Stream size : 133 MiB (9%)
Alignment : Aligned on interleaves
Interleave, duration : 40 ms (1.00 video frame)
Interleave, preload duration : 504 ms
Writing library : LAME3.99r
Encoding settings : -m s -V 4 -q 2 -lowpass 17 -b 128


Релиз от:



   Похожие торренты   Торрент   Размер 
В этой теме нет новых непрочитанных сообщений. Не бойся, я с тобой! (1981) HDTVRip-AVC от New-Team

602 | 61

2.18 ГБ

В этой теме нет новых непрочитанных сообщений. Не бойся, я с тобой! (1981) HDTVRip от New-Team

475 | 21

977.64 МБ

В этой теме нет новых непрочитанных сообщений. Не бойся, я с тобой! (1981) HDTVRip от New-Team

95 | 23

2.18 ГБ

В этой теме нет новых непрочитанных сообщений. Не бойся, я с тобой! (1981) DVDRip

0 | 2

2.1 ГБ

В этой теме нет новых непрочитанных сообщений. Не бойся, я с тобой! (1981) DVDRip от New-Team

161 | 24

1.46 ГБ

В этой теме нет новых непрочитанных сообщений. Не бойся, я с тобой! (1981) DVDRip-AVC от New-Team

18 | 5

2.19 ГБ

В этой теме нет новых непрочитанных сообщений. Не бойся, я с тобой! (1981) DVDRip от New-Team

40 | 3

2.19 ГБ




Вы не можете начинать темы
Вы не можете отвечать на сообщения
Вы не можете редактировать свои сообщения
Вы не можете удалять свои сообщения
Вы не можете добавлять вложения

Перейти:  
Для Мосгорсуда, Роскомнадзора и рекламодателей: mosgorsud-torrent[собачка]yandex.ru
 Вход
ppkBB3cker v.2 © 2008-2014 @ PPK
[ Time : 0.020s | 16 Queries | GZIP : Off ]

Торрент трекер RUTOR.IN, Не можете зайти на rutor.org? Какой новый адрес рутор? Какое зеркало рутор? Не работает rutor.org и зеркала? Тогда наш торрент специально для вас. Rutor.in неофициальное зеркало rutor. В случае если у Вас заблокирован rutor или вдруг Вы не можете на него зайти, то Вы без труда сможете скачать бесплатно и без рекламы последние новинки кино, игр, сериалов и прочего у нас, на Rutor.in. Не нужно использовать прокси, чтобы зайти на рутор, достаточно воспользоваться нашим ресурсом. Все новые фильмы, игры, сериалы, книги и музыка за 2013 и 2014 годы через торрент бесплатно. Скачивайте фильмы в хорошем качестве, игры для пк, xbox, playstation без регистрации. У нас вы найдете новые Зарубежные сериалы и Русские сериалы 2013, 2014, 2015 годов. Оставайтесь с нами, качайте любимые фильмы, игры, сериалы, книги и музыку.