img image001 image001 image001 image001 image001 image001 image001 image001 image001 image001 image001 image001 image001 image001 image001

Planets Sun Sun Sun
Статистика раздачи
Автор: PriZraK | Размер: 745.29 МБ | Добавлен: 29 авг 2016
Раздают: 12    Качают: 2
Скачать торрент
Скачать торрент
Описание торрента

СообщениеДобавлено: 29 авг 2016 

Страна: СССР
Производство: Мосфильм
Жанр: фэнтези
Год выпуска: 1956
Продолжительность: 01:26:46
Перевод: не требуется
Оригинальная аудиодорожка: русский
Cубтитры: нет
Режиссер: Александр Птушко
В ролях: Борис Андреев, Шукур Бурханов, Андрей Абрикосов, Наталья Медведева, Нинель Мышкова, Сергей Мартинсон, Георгий Дёмин, Александр Шворин, Владимир Соловьев, Михаил Пуговкин, Сергей Столяров, Ия Арепина, Тамара Носова, Александра Данилова, Николай Гладков, Пол Фрис, Майк Уоллес, Ау-Сон-Хи, Муратбек Рыскулов, Владимир Тягушев, Садыкбек Джаманов, Шамши Тюменбаев...
Полный список актёров
Описание:
Защитник Руси, богатырь Илья Муромец по навету бояр попадает в княжеское подземелье. Но когда на родную землю вновь приходит беда, вынужден князь идти на поклон Муромцу и друзьям его — Алеше Поповичу и Добрыне Никитичу…





Исходник: HDTV
Тип релиза: HDTVRip
Контейнер: AVI
Видео: 720x304 (2,35:1), 29,970 fps, XviD ~ 1061 kbps avg, 0.162 bit/pixel
Аудио: 48 kHz, MP3 2.0, 128 kbps
Раздача от:
Общее
Полное имя : E:Tracker2016Илья МуромецIliya.Muromec.1956.HDTVRip-745_[New-team]_by_AVP_Studio.avi
Формат : AVI
Формат/Информация : Audio Video Interleave
Размер файла : 745 Мбайт
Продолжительность : 1 ч. 26 м.
Общий поток : 1201 Кбит/сек
Программа кодирования : VirtualDubMod 1.5.10.3 | www.virtualdub-fr.org || (build 2550/release)
Библиотека кодирования : VirtualDubMod build 2550/release
Видео
Идентификатор : 0
Формат : MPEG-4 Visual
Профиль формата : Advanced Simple@L5
Параметр BVOP формата : 1
Параметр QPel формата : Нет
Параметр GMC формата : Без точки перехода
Параметр матрицы формата : Выборочная
Идентификатор кодека : XVID
Идентификатор кодека/Подсказка : XviD
Продолжительность : 1 ч. 26 м.
Битрейт : 1061 Кбит/сек
Ширина : 720 пикселей
Высота : 304 пикселя
Соотношение сторон : 2,35:1
Частота кадров : 29,970 (29970/1000) кадров/сек
Цветовое пространство : YUV
Субдискретизация насыщенности : 4:2:0
Битовая глубина : 8 бит
Тип развёртки : Прогрессивная
Метод сжатия : С потерями
Бит/(Пиксели*Кадры) : 0.162
Размер потока : 659 Мбайт (88%)
Библиотека кодирования : XviD 1.2.1 (UTC 2008-12-04)
Аудио
Идентификатор : 1
Формат : MPEG Audio
Версия формата : Version 1
Профиль формата : Layer 3
Идентификатор кодека : 55
Идентификатор кодека/Подсказка : MP3
Продолжительность : 1 ч. 26 м.
Вид битрейта : Постоянный
Битрейт : 128 Кбит/сек
Каналы : 2 канала
Частота : 48,0 КГц
Метод сжатия : С потерями
Размер потока : 79,5 Мбайт (11%)
Выравнивание : Соединение по промежуткам
Продолжительность промежутка : 33 мс. (1,00 видеокадр)
Время предзагрузки промежутка : 504 мс.
Библиотека кодирования : LAME3.99r
Настройки программы : -m s -V 4 -q 2 -lowpass 17 -b 128





   Похожие торренты   Торрент   Размер 
В этой теме нет новых непрочитанных сообщений. Илья Муромец (1956) HDTVRip от New-Team

17 | 4

1.09 ГБ

В этой теме нет новых непрочитанных сообщений. Илья Муромец (1956) HDTVRip-AVC от New-Team

43 | 6

1.45 ГБ

В этой теме нет новых непрочитанных сообщений. Илья Муромец (1956) DVD5 от New-Team | Сжатый

4 | 0

4.37 ГБ

В этой теме нет новых непрочитанных сообщений. Илья Муромец (1956) HDTVRip 720p

193 | 30

3.27 ГБ

В этой теме нет новых непрочитанных сообщений. Илья Муромец (1956) DVDRip-AVC от ExKinoRay

58 | 9

1.49 ГБ

В этой теме нет новых непрочитанных сообщений. Илья Муромец (1956) DVDRip от Youtracker

18 | 14

744.42 МБ

В этой теме нет новых непрочитанных сообщений. Илья Муромец (1956) DVDRip от ExKinoRay | Реставрация

507 | 22

1.38 ГБ




Вы не можете начинать темы
Вы не можете отвечать на сообщения
Вы не можете редактировать свои сообщения
Вы не можете удалять свои сообщения
Вы не можете добавлять вложения

Перейти:  
Для Мосгорсуда, Роскомнадзора и рекламодателей: mosgorsud-torrent[собачка]yandex.ru
 Вход
ppkBB3cker v.2 © 2008-2014 @ PPK
[ Time : 0.064s | 16 Queries | GZIP : Off ]

Торрент трекер RUTOR.IN, Не можете зайти на rutor.org? Какой новый адрес рутор? Какое зеркало рутор? Не работает rutor.org и зеркала? Тогда наш торрент специально для вас. Rutor.in неофициальное зеркало rutor. В случае если у Вас заблокирован rutor или вдруг Вы не можете на него зайти, то Вы без труда сможете скачать бесплатно и без рекламы последние новинки кино, игр, сериалов и прочего у нас, на Rutor.in. Не нужно использовать прокси, чтобы зайти на рутор, достаточно воспользоваться нашим ресурсом. Все новые фильмы, игры, сериалы, книги и музыка за 2013 и 2014 годы через торрент бесплатно. Скачивайте фильмы в хорошем качестве, игры для пк, xbox, playstation без регистрации. У нас вы найдете новые Зарубежные сериалы и Русские сериалы 2013, 2014, 2015 годов. Оставайтесь с нами, качайте любимые фильмы, игры, сериалы, книги и музыку.
cron