img image001 image001 image001 image001 image001 image001 image001 image001 image001 image001 image001 image001 image001 image001 image001

Planets Sun Sun Sun
Статистика раздачи
Автор: PriZraK | Размер: 1.45 ГБ | Добавлен: 29 авг 2016
Раздают: 41    Качают: 6
Скачать торрент
Скачать торрент
Описание торрента

СообщениеДобавлено: 29 авг 2016 

Страна: СССР
Производство: Мосфильм
Жанр: фэнтези
Год выпуска: 1956
Продолжительность: 01:26:46
Перевод: не требуется
Оригинальная аудиодорожка: русский
Cубтитры: нет
Режиссер: Александр Птушко
В ролях: Борис Андреев, Шукур Бурханов, Андрей Абрикосов, Наталья Медведева, Нинель Мышкова, Сергей Мартинсон, Георгий Дёмин, Александр Шворин, Владимир Соловьев, Михаил Пуговкин, Сергей Столяров, Ия Арепина, Тамара Носова, Александра Данилова, Николай Гладков, Пол Фрис, Майк Уоллес, Ау-Сон-Хи, Муратбек Рыскулов, Владимир Тягушев, Садыкбек Джаманов, Шамши Тюменбаев...
Полный список актёров
Описание:
Защитник Руси, богатырь Илья Муромец по навету бояр попадает в княжеское подземелье. Но когда на родную землю вновь приходит беда, вынужден князь идти на поклон Муромцу и друзьям его — Алеше Поповичу и Добрыне Никитичу…





Исходник: HDTV
Тип релиза: HDTVRip-AVC
Контейнер: MKV
Видео: 1024x436 (2,35:1), 29,970 fps, H264 ~ 2205 kbps avg, 0.165 bit/pixel
Аудио: 48 kHz, Dolby Digital AC3 2.0, 192 kbps
Раздача от:
Общее
Полное имя : Iliya.Muromec.1956.HDTVRip-AVC_[New-team]_by_AVP_Studio.mkv
Формат : Matroska
Версия формата : Version 2
Размер файла : 1,45 Гбайт
Продолжительность : 1 ч. 26 м.
Общий поток : 2399 Кбит/сек
Дата кодирования : UTC 2016-08-27 12:00:17
Программа кодирования : mkvmerge v6.1.0 ('Old Devil') built on Mar 4 2013 09:10:42
Библиотека кодирования : libebml v1.3.0 + libmatroska v1.4.0
Видео
Идентификатор : 1
Формат : AVC
Формат/Информация : Advanced Video Codec
Профиль формата : High@L4.1
Параметр CABAC формата : Да
Параметр ReFrames формата : 10 кадров
Идентификатор кодека : V_MPEG4/ISO/AVC
Продолжительность : 1 ч. 26 м.
Битрейт : 2205 Кбит/сек
Ширина : 1024 пикселя
Высота : 436 пикселей
Соотношение сторон : 2,35:1
Режим частоты кадров : Постоянный
Частота кадров : 29,970 (30000/1001) кадров/сек
Цветовое пространство : YUV
Субдискретизация насыщенности : 4:2:0
Битовая глубина : 8 бит
Тип развёртки : Прогрессивная
Бит/(Пиксели*Кадры) : 0.165
Размер потока : 1,31 Гбайт (90%)
Библиотека кодирования : x264 core 148 r2597 e86f3a1
Настройки программы : cabac=1 / ref=10 / deblock=1:-3:-2 / analyse=0x3:0x113 / me=umh / subme=10 / psy=1 / psy_rd=1.00:0.00 / mixed_ref=1 / me_range=32 / chroma_me=1 / trellis=2 / 8x8dct=1 / cqm=0 / deadzone=21,11 / fast_pskip=1 / chroma_qp_offset=-2 / threads=6 / lookahead_threads=1 / sliced_threads=0 / nr=0 / decimate=0 / interlaced=0 / bluray_compat=0 / constrained_intra=0 / bframes=8 / b_pyramid=2 / b_adapt=2 / b_bias=0 / direct=3 / weightb=1 / open_gop=0 / weightp=2 / keyint=240 / keyint_min=24 / scenecut=40 / intra_refresh=0 / rc_lookahead=40 / rc=2pass / mbtree=1 / bitrate=2205 / ratetol=1.0 / qcomp=0.60 / qpmin=0 / qpmax=69 / qpstep=4 / cplxblur=20.0 / qblur=0.5 / ip_ratio=1.40 / aq=1:1.00
Default : Да
Forced : Нет
Аудио
Идентификатор : 2
Формат : AC-3
Формат/Информация : Audio Coding 3
Расширение режима : CM (complete main)
Параметр Endianness формата : Big
Идентификатор кодека : A_AC3
Продолжительность : 1 ч. 26 м.
Вид битрейта : Постоянный
Битрейт : 192 Кбит/сек
Каналы : 2 канала
Расположение каналов : Front: L R
Частота : 48,0 КГц
Частота кадров : 31,250 кадров/сек (1536 spf)
Метод сжатия : С потерями
Размер потока : 119 Мбайт (8%)
Default : Да
Forced : Нет





   Похожие торренты   Торрент   Размер 
В этой теме нет новых непрочитанных сообщений. Илья Муромец (1956) HDTVRip от New-Team

12 | 1

745.29 МБ

В этой теме нет новых непрочитанных сообщений. Илья Муромец (1956) HDTVRip от New-Team

18 | 6

1.09 ГБ

В этой теме нет новых непрочитанных сообщений. Илья Муромец (1956) DVD5 от New-Team | Сжатый

0 | 2

4.37 ГБ

В этой теме нет новых непрочитанных сообщений. Илья Муромец (1956) HDTVRip 720p

193 | 30

3.27 ГБ

В этой теме нет новых непрочитанных сообщений. Илья Муромец (1956) DVDRip от Youtracker

18 | 14

744.42 МБ

В этой теме нет новых непрочитанных сообщений. Илья Муромец (1956) DVDRip-AVC от ExKinoRay

58 | 9

1.49 ГБ

В этой теме нет новых непрочитанных сообщений. Илья Муромец (1956) DVD5 от Youtracker | Сжатый

2 | 8

4.37 ГБ




Вы не можете начинать темы
Вы не можете отвечать на сообщения
Вы не можете редактировать свои сообщения
Вы не можете удалять свои сообщения
Вы не можете добавлять вложения

Перейти:  
Для Мосгорсуда, Роскомнадзора и рекламодателей: mosgorsud-torrent[собачка]yandex.ru
 Вход
ppkBB3cker v.2 © 2008-2014 @ PPK
[ Time : 0.040s | 17 Queries | GZIP : Off ]

cron