img image001 image001 image001 image001 image001 image001 image001 image001 image001 image001 image001 image001 image001 image001 image001

Planets Sun Sun Sun
Статистика раздачи
Автор: PriZraK | Размер: 746.67 МБ | Добавлен: 30 авг 2016
Раздают: 24    Качают: 4
Скачать торрент
Скачать торрент
Описание торрента

СообщениеДобавлено: 30 авг 2016 

Страна: СССР
Производство: Киностудия им. Горького
Жанр: драма
Год выпуска: 1955
Продолжительность: 01:38:32
Перевод: Не требуется
Cубтитры: нет
Оригинальная аудиодорожка: русский
Режиссер: Станислав Ростоцкий
В ролях:
Алексей Егоров, Елена Батенина, Пётр Чернов, Владимир Иванов, Римма Шорохова, Владимир Ратомский, Пётр Алейников, Григорий Белов, Иван Кузнецов, Борис Ситко, Михаил Пуговкин, Анатолий Кубацкий, Вера Алтайская, Валентина Телегина, Светлана Харитонова, Евгений Гуров, Николай Граббе, Евгений Кудряшёв, Пётр Константинов...
Полный список актёров
Описание:
1953 год. Председателю колхоза «Новая жизнь» Самоварову, консерватору и перестраховщику, приходится не по душе молодой агроном-новатор Шуров. В разгар посевной кампании Самоваров запрещает Шурову сев пшеницы новым методом. Однако Шуров, видя всю пагубность распоряжения председателя, решает поступить по-своему. С помощью бригадира Алёши Пшеничкина, старого хлебороба Терентия Петровича и студентки-практикантки Тоси Ельниковой он производит сев пшеницы по взлущенной земле. Узнав об этом, Самоваров жалуется в районный центр на незаконные действия агронома. Прокуратура начинает следствие…





Источник: DVB
Качество видео: SATRip
Формат видео: AVI
Видео: 576x432 (4:3), 25 fps, XviD ~ 922 kbps avg, 0.148 bit/pixel
Аудио: 48 kHz, MP3 2.0, 128 kbps
Раздача от:
Общее
Полное имя : Zemlya.i.lyudi.1955.SATRip-745_[New-team]_by_AVP_Studio.avi
Формат : AVI
Формат/Информация : Audio Video Interleave
Размер файла : 747 Мбайт
Продолжительность : 1 ч. 38 м.
Общий поток : 1060 Кбит/сек
Программа кодирования : VirtualDubMod 1.5.10.3 | www.virtualdub-fr.org || (build 2550/release)
Библиотека кодирования : VirtualDubMod build 2550/release
Видео
Идентификатор : 0
Формат : MPEG-4 Visual
Профиль формата : Advanced Simple@L5
Параметр BVOP формата : 1
Параметр QPel формата : Нет
Параметр GMC формата : Без точки перехода
Параметр матрицы формата : Выборочная
Идентификатор кодека : XVID
Идентификатор кодека/Подсказка : XviD
Продолжительность : 1 ч. 38 м.
Битрейт : 922 Кбит/сек
Ширина : 576 пикселей
Высота : 432 пикселя
Соотношение сторон : 4:3
Частота кадров : 25,000 кадров/сек
Цветовое пространство : YUV
Субдискретизация насыщенности : 4:2:0
Битовая глубина : 8 бит
Тип развёртки : Прогрессивная
Метод сжатия : С потерями
Бит/(Пиксели*Кадры) : 0.148
Размер потока : 650 Мбайт (87%)
Библиотека кодирования : XviD 1.2.1 (UTC 2008-12-04)
Аудио
Идентификатор : 1
Формат : MPEG Audio
Версия формата : Version 1
Профиль формата : Layer 3
Идентификатор кодека : 55
Идентификатор кодека/Подсказка : MP3
Продолжительность : 1 ч. 38 м.
Вид битрейта : Постоянный
Битрейт : 128 Кбит/сек
Каналы : 2 канала
Частота : 48,0 КГц
Метод сжатия : С потерями
Размер потока : 90,2 Мбайт (12%)
Выравнивание : Соединение по промежуткам
Продолжительность промежутка : 40 мс. (1,00 видеокадр)
Время предзагрузки промежутка : 504 мс.
Библиотека кодирования : LAME3.99r
Настройки программы : -m s -V 4 -q 2 -lowpass 17 -b 128





   Похожие торренты   Торрент   Размер 
В этой теме нет новых непрочитанных сообщений. Земля и люди (1955) SATRip от New-Team

9 | 9

1.46 ГБ

В этой теме нет новых непрочитанных сообщений. Земля и люди (1955) SATRip-AVC от New-Team

32 | 7

1.46 ГБ

В этой теме нет новых непрочитанных сообщений. Сын (1955) SATRip от New-Team

10 | 4

1.09 ГБ

В этой теме нет новых непрочитанных сообщений. Сын (1955) SATRip от New-Team

3 | 4

744.6 МБ

В этой теме нет новых непрочитанных сообщений. Сын (1955) SATRip-AVC от New-Team

16 | 3

1.09 ГБ

В этой теме нет новых непрочитанных сообщений. Овод (1955) SATRip от New-Team

29 | 4

1.46 ГБ

В этой теме нет новых непрочитанных сообщений. Вольница (1955) SATRip от New-Team

20 | 3

748.64 МБ




Вы не можете начинать темы
Вы не можете отвечать на сообщения
Вы не можете редактировать свои сообщения
Вы не можете удалять свои сообщения
Вы не можете добавлять вложения

Перейти:  
Для Мосгорсуда, Роскомнадзора и рекламодателей: mosgorsud-torrent[собачка]yandex.ru
 Вход
ppkBB3cker v.2 © 2008-2014 @ PPK
[ Time : 0.018s | 16 Queries | GZIP : Off ]

Торрент трекер RUTOR.IN, Не можете зайти на rutor.org? Какой новый адрес рутор? Какое зеркало рутор? Не работает rutor.org и зеркала? Тогда наш торрент специально для вас. Rutor.in неофициальное зеркало rutor. В случае если у Вас заблокирован rutor или вдруг Вы не можете на него зайти, то Вы без труда сможете скачать бесплатно и без рекламы последние новинки кино, игр, сериалов и прочего у нас, на Rutor.in. Не нужно использовать прокси, чтобы зайти на рутор, достаточно воспользоваться нашим ресурсом. Все новые фильмы, игры, сериалы, книги и музыка за 2013 и 2014 годы через торрент бесплатно. Скачивайте фильмы в хорошем качестве, игры для пк, xbox, playstation без регистрации. У нас вы найдете новые Зарубежные сериалы и Русские сериалы 2013, 2014, 2015 годов. Оставайтесь с нами, качайте любимые фильмы, игры, сериалы, книги и музыку.